  0
SECTION
  2
HEADER
  9
$ACADVER
  1
AC1024
  9
$ACADMAINTVER
 70
    39
  9
$DWGCODEPAGE
  3
ANSI_950
  9
$LASTSAVEDBY
  1
USER
  9
$INSBASE
 10
0.0
 20
0.0
 30
0.0
  9
$EXTMIN
 10
-0.0242417309401617
 20
-0.0070319304384157
 30
-0.0000000000000053
  9
$EXTMAX
 10
280.0111465092125
 20
190.0044101600192
 30
0.0000000000000099
  9
$LIMMIN
 10
0.0
 20
0.0
  9
$LIMMAX
 10
420.0
 20
297.0
  9
$ORTHOMODE
 70
     1
  9
$REGENMODE
 70
     1
  9
$FILLMODE
 70
     1
  9
$QTEXTMODE
 70
     0
  9
$MIRRTEXT
 70
     0
  9
$LTSCALE
 40
1.0
  9
$ATTMODE
 70
     1
  9
$TEXTSIZE
 40
2.5
  9
$TRACEWID
 40
1.0
  9
$TEXTSTYLE
  7
Standard
  9
$CLAYER
  8
mark
  9
$CELTYPE
  6
ByLayer
  9
$CECOLOR
 62
   256
  9
$CELTSCALE
 40
1.0
  9
$DISPSILH
 70
     0
  9
$DIMSCALE
 40
1.0
  9
$DIMASZ
 40
2.5
  9
$DIMEXO
 40
0.85
  9
$DIMDLI
 40
1.6
  9
$DIMRND
 40
0.0
  9
$DIMDLE
 40
0.0
  9
$DIMEXE
 40
0.85
  9
$DIMTP
 40
0.0
  9
$DIMTM
 40
0.0
  9
$DIMTXT
 40
2.5
  9
$DIMCEN
 40
2.7
  9
$DIMTSZ
 40
0.0
  9
$DIMTOL
 70
     0
  9
$DIMLIM
 70
     0
  9
$DIMTIH
 70
     0
  9
$DIMTOH
 70
     1
  9
$DIMSE1
 70
     0
  9
$DIMSE2
 70
     0
  9
$DIMTAD
 70
     1
  9
$DIMZIN
 70
     8
  9
$DIMBLK
  1
Open30
  9
$DIMASO
 70
     1
  9
$DIMSHO
 70
     1
  9
$DIMPOST
  1

  9
$DIMAPOST
  1

  9
$DIMALT
 70
     0
  9
$DIMALTD
 70
     3
  9
$DIMALTF
 40
0.03937007874016
  9
$DIMLFAC
 40
1.0
  9
$DIMTOFL
 70
     1
  9
$DIMTVP
 40
0.0
  9
$DIMTIX
 70
     0
  9
$DIMSOXD
 70
     0
  9
$DIMSAH
 70
     0
  9
$DIMBLK1
  1

  9
$DIMBLK2
  1

  9
$DIMSTYLE
  2
ISO-25
  9
$DIMCLRD
 70
   256
  9
$DIMCLRE
 70
   256
  9
$DIMCLRT
 70
     3
  9
$DIMTFAC
 40
1.0
  9
$DIMGAP
 40
0.85
  9
$DIMJUST
 70
     0
  9
$DIMSD1
 70
     0
  9
$DIMSD2
 70
     0
  9
$DIMTOLJ
 70
     0
  9
$DIMTZIN
 70
     8
  9
$DIMALTZ
 70
     0
  9
$DIMALTTZ
 70
     0
  9
$DIMUPT
 70
     0
  9
$DIMDEC
 70
     2
  9
$DIMTDEC
 70
     2
  9
$DIMALTU
 70
     2
  9
$DIMALTTD
 70
     3
  9
$DIMTXSTY
  7
Standard
  9
$DIMAUNIT
 70
     0
  9
$DIMADEC
 70
     2
  9
$DIMALTRND
 40
0.0
  9
$DIMAZIN
 70
     2
  9
$DIMDSEP
 70
    44
  9
$DIMATFIT
 70
     3
  9
$DIMFRAC
 70
     0
  9
$DIMLDRBLK
  1
Open30
  9
$DIMLUNIT
 70
     2
  9
$DIMLWD
 70
    -2
  9
$DIMLWE
 70
    -2
  9
$DIMTMOVE
 70
     0
  9
$DIMFXL
 40
0.18
  9
$DIMFXLON
 70
     0
  9
$DIMJOGANG
 40
0.7853981633974483
  9
$DIMTFILL
 70
     0
  9
$DIMTFILLCLR
 70
     0
  9
$DIMARCSYM
 70
     1
  9
$DIMLTYPE
  6
ByBlock
  9
$DIMLTEX1
  6
ByBlock
  9
$DIMLTEX2
  6
ByBlock
  9
$DIMTXTDIRECTION
 70
     0
  9
$LUNITS
 70
     2
  9
$LUPREC
 70
     4
  9
$SKETCHINC
 40
1.0
  9
$FILLETRAD
 40
3.0
  9
$AUNITS
 70
     0
  9
$AUPREC
 70
     0
  9
$MENU
  1
.
  9
$ELEVATION
 40
0.0
  9
$PELEVATION
 40
0.0
  9
$THICKNESS
 40
0.0
  9
$LIMCHECK
 70
     0
  9
$CHAMFERA
 40
0.5
  9
$CHAMFERB
 40
0.5
  9
$CHAMFERC
 40
45.0
  9
$CHAMFERD
 40
0.7853981633974483
  9
$SKPOLY
 70
     0
  9
$TDCREATE
 40
2453952.586786748
  9
$TDUCREATE
 40
2453952.253453415
  9
$TDUPDATE
 40
2458472.419266956
  9
$TDUUPDATE
 40
2458472.085933623
  9
$TDINDWG
 40
1.0058250347
  9
$TDUSRTIMER
 40
1.0058239468
  9
$USRTIMER
 70
     1
  9
$ANGBASE
 50
0.0
  9
$ANGDIR
 70
     0
  9
$PDMODE
 70
     3
  9
$PDSIZE
 40
0.0
  9
$PLINEWID
 40
0.0
  9
$SPLFRAME
 70
     0
  9
$SPLINETYPE
 70
     6
  9
$SPLINESEGS
 70
     8
  9
$HANDSEED
  5
9AEE
  9
$SURFTAB1
 70
     6
  9
$SURFTAB2
 70
     6
  9
$SURFTYPE
 70
     6
  9
$SURFU
 70
     6
  9
$SURFV
 70
     6
  9
$UCSBASE
  2

  9
$UCSNAME
  2

  9
$UCSORG
 10
0.0
 20
0.0
 30
0.0
  9
$UCSXDIR
 10
1.0
 20
0.0
 30
0.0
  9
$UCSYDIR
 10
0.0
 20
1.0
 30
0.0
  9
$UCSORTHOREF
  2

  9
$UCSORTHOVIEW
 70
     1
  9
$UCSORGTOP
 10
0.0
 20
0.0
 30
0.0
  9
$UCSORGBOTTOM
 10
0.0
 20
0.0
 30
0.0
  9
$UCSORGLEFT
 10
0.0
 20
0.0
 30
0.0
  9
$UCSORGRIGHT
 10
0.0
 20
0.0
 30
0.0
  9
$UCSORGFRONT
 10
0.0
 20
0.0
 30
0.0
  9
$UCSORGBACK
 10
0.0
 20
0.0
 30
0.0
  9
$PUCSBASE
  2

  9
$PUCSNAME
  2

  9
$PUCSORG
 10
0.0
 20
0.0
 30
0.0
  9
$PUCSXDIR
 10
1.0
 20
0.0
 30
0.0
  9
$PUCSYDIR
 10
0.0
 20
1.0
 30
0.0
  9
$PUCSORTHOREF
  2

  9
$PUCSORTHOVIEW
 70
     0
  9
$PUCSORGTOP
 10
0.0
 20
0.0
 30
0.0
  9
$PUCSORGBOTTOM
 10
0.0
 20
0.0
 30
0.0
  9
$PUCSORGLEFT
 10
0.0
 20
0.0
 30
0.0
  9
$PUCSORGRIGHT
 10
0.0
 20
0.0
 30
0.0
  9
$PUCSORGFRONT
 10
0.0
 20
0.0
 30
0.0
  9
$PUCSORGBACK
 10
0.0
 20
0.0
 30
0.0
  9
$USERI1
 70
     0
  9
$USERI2
 70
     0
  9
$USERI3
 70
     0
  9
$USERI4
 70
     0
  9
$USERI5
 70
     0
  9
$USERR1
 40
0.0
  9
$USERR2
 40
0.0
  9
$USERR3
 40
0.0
  9
$USERR4
 40
0.0
  9
$USERR5
 40
0.0
  9
$WORLDVIEW
 70
     1
  9
$SHADEDGE
 70
     3
  9
$SHADEDIF
 70
    70
  9
$TILEMODE
 70
     1
  9
$MAXACTVP
 70
    64
  9
$PINSBASE
 10
0.0
 20
0.0
 30
0.0
  9
$PLIMCHECK
 70
     0
  9
$PEXTMIN
 10
0.0
 20
0.0
 30
0.0
  9
$PEXTMAX
 10
0.0
 20
0.0
 30
0.0
  9
$PLIMMIN
 10
0.0
 20
0.0
  9
$PLIMMAX
 10
12.0
 20
9.0
  9
$UNITMODE
 70
     0
  9
$VISRETAIN
 70
     1
  9
$PLINEGEN
 70
     0
  9
$PSLTSCALE
 70
     1
  9
$TREEDEPTH
 70
  3020
  9
$CMLSTYLE
  2
Standard
  9
$CMLJUST
 70
     0
  9
$CMLSCALE
 40
20.0
  9
$PROXYGRAPHICS
 70
     1
  9
$MEASUREMENT
 70
     1
  9
$CELWEIGHT
370
    -1
  9
$ENDCAPS
280
     0
  9
$JOINSTYLE
280
     0
  9
$LWDISPLAY
290
     0
  9
$INSUNITS
 70
     4
  9
$HYPERLINKBASE
  1

  9
$STYLESHEET
  1
LIN.ctb
  9
$XEDIT
290
     1
  9
$CEPSNTYPE
380
     0
  9
$PSTYLEMODE
290
     1
  9
$FINGERPRINTGUID
  2
{CB7B7C18-C0B1-49D6-A603-B3CB3420C1F9}
  9
$VERSIONGUID
  2
{ED803A55-5E11-4DF8-AE33-0328CD59BE49}
  9
$EXTNAMES
290
     1
  9
$PSVPSCALE
 40
0.0
  9
$OLESTARTUP
290
     0
  9
$SORTENTS
280
   127
  9
$INDEXCTL
280
     0
  9
$HIDETEXT
280
     1
  9
$XCLIPFRAME
280
     2
  9
$HALOGAP
280
     0
  9
$OBSCOLOR
 70
   257
  9
$OBSLTYPE
280
     0
  9
$INTERSECTIONDISPLAY
280
     0
  9
$INTERSECTIONCOLOR
 70
   257
  9
$DIMASSOC
280
     2
  9
$PROJECTNAME
  1

  9
$CAMERADISPLAY
290
     0
  9
$LENSLENGTH
 40
50.0
  9
$CAMERAHEIGHT
 40
0.0
  9
$STEPSPERSEC
 40
2.0
  9
$STEPSIZE
 40
6.0
  9
$3DDWFPREC
 40
2.0
  9
$PSOLWIDTH
 40
0.25
  9
$PSOLHEIGHT
 40
4.0
  9
$LOFTANG1
 40
1.570796326794896
  9
$LOFTANG2
 40
1.570796326794896
  9
$LOFTMAG1
 40
0.0
  9
$LOFTMAG2
 40
0.0
  9
$LOFTPARAM
 70
     7
  9
$LOFTNORMALS
280
     1
  9
$LATITUDE
 40
37.795
  9
$LONGITUDE
 40
-122.394
  9
$NORTHDIRECTION
 40
0.0
  9
$TIMEZONE
 70
 -8000
  9
$LIGHTGLYPHDISPLAY
280
     1
  9
$TILEMODELIGHTSYNCH
280
     1
  9
$CMATERIAL
347
8A6F
  9
$SOLIDHIST
280
     1
  9
$SHOWHIST
280
     1
  9
$DWFFRAME
280
     2
  9
$DGNFRAME
280
     0
  9
$REALWORLDSCALE
290
     1
  9
$INTERFERECOLOR
 62
     1
  9
$INTERFEREOBJVS
345
8A91
  9
$INTERFEREVPVS
346
8A8E
  9
$CSHADOW
280
     0
  9
$SHADOWPLANELOCATION
 40
0.0
  0
ENDSEC
  0
SECTION
  2
CLASSES
  0
CLASS
  1
ACDBDICTIONARYWDFLT
  2
AcDbDictionaryWithDefault
  3
ObjectDBX Classes
 90
        0
 91
        1
280
     0
281
     0
  0
CLASS
  1
DICTIONARYVAR
  2
AcDbDictionaryVar
  3
ObjectDBX Classes
 90
        0
 91
       12
280
     0
281
     0
  0
CLASS
  1
TABLESTYLE
  2
AcDbTableStyle
  3
ObjectDBX Classes
 90
     4095
 91
        1
280
     0
281
     0
  0
CLASS
  1
DIMASSOC
  2
AcDbDimAssoc
  3
"AcDbDimAssoc|Product Desc:     AcDim ARX App For Dimension|Company:          Autodesk, Inc.|WEB Address:      www.autodesk.com"
 90
        0
 91
       19
280
     0
281
     0
  0
CLASS
  1
SORTENTSTABLE
  2
AcDbSortentsTable
  3
ObjectDBX Classes
 90
        0
 91
        2
280
     0
281
     0
  0
CLASS
  1
MATERIAL
  2
AcDbMaterial
  3
ObjectDBX Classes
 90
     1153
 91
        3
280
     0
281
     0
  0
CLASS
  1
VISUALSTYLE
  2
AcDbVisualStyle
  3
ObjectDBX Classes
 90
     4095
 91
       24
280
     0
281
     0
  0
CLASS
  1
SCALE
  2
AcDbScale
  3
ObjectDBX Classes
 90
     1153
 91
       17
280
     0
281
     0
  0
CLASS
  1
MLEADERSTYLE
  2
AcDbMLeaderStyle
  3
ACDB_MLEADERSTYLE_CLASS
 90
     4095
 91
        1
280
     0
281
     0
  0
CLASS
  1
ACME_DOCUMENT
  2
AcMeDbDoc
  3
AcMeServices
 90
     1024
 91
        2
280
     0
281
     0
  0
CLASS
  1
AMGSETTINGSOBJ
  2
AmgSettingsObj
  3
"AcadM|Product Description: AutoCAD Mechanical|Company: Autodesk, Inc."
 90
     1024
 91
        2
280
     0
281
     0
  0
CLASS
  1
ACMESCOPE
  2
AcMeScope
  3
AcMeServices
 90
     1024
 91
        1
280
     0
281
     0
  0
CLASS
  1
ACMECOMMANDHISTORY
  2
AcMeCommandHistory
  3
AcMeServices
 90
     1024
 91
        1
280
     0
281
     0
  0
CLASS
  1
ACIMSYSVARMAN
  2
AcImSysVarManager
  3
AcMeServices
 90
     1024
 91
        4
280
     0
281
     0
  0
CLASS
  1
ACIMINTSYSVAR
  2
AcImIntSysVar
  3
AcMeServices
 90
     1024
 91
       27
280
     0
281
     0
  0
CLASS
  1
ACMESTATEMGR
  2
AcMeStateMgr
  3
AcMeServices
 90
     1024
 91
        1
280
     0
281
     0
  0
CLASS
  1
ACDBENTITYCACHE
  2
AcMeEntityCache
  3
AcMeServices
 90
     1024
 91
        1
280
     0
281
     0
  0
CLASS
  1
ACGREFMASTER
  2
AcGrefMaster
  3
AcAttribServices
 90
     1024
 91
        1
280
     0
281
     0
  0
CLASS
  1
AM_DRAWING_MGR
  2
AcDmDwgMgr
  3
AcMechDwgViewMgmt
 90
     1024
 91
        1
280
     0
281
     0
  0
CLASS
  1
AM_DWG_DOCUMENT
  2
AcDmDwgDocument
  3
AcMechDwgViewMgmt
 90
     1024
 91
        1
280
     0
281
     0
  0
CLASS
  1
AM_DWG_SHEET
  2
AcDmSheet
  3
AcMechDwgViewMgmt
 90
     1024
 91
        2
280
     0
281
     0
  0
CLASS
  1
AM_VIEWDIMPARMAP
  2
AcDmViewDimParMap
  3
AcMechDwgViewMgmt
 90
     1024
 91
        2
280
     0
281
     0
  0
CLASS
  1
AMDTINTERNALREACTOR
  2
AmdtInternalReactor
  3
AcMeServices
 90
     1024
 91
        1
280
     0
281
     0
  0
CLASS
  1
ACIMREALSYSVAR
  2
AcImRealSysVar
  3
AcMeServices
 90
     1024
 91
        1
280
     0
281
     0
  0
CLASS
  1
AM_DWGMGR_NAME
  2
AcDmDwgMgrName
  3
AcMechDwgViewMgmt
 90
     1024
 91
        1
280
     0
281
     0
  0
CLASS
  1
ACME_DATABASE
  2
AcMeDbDatabase
  3
AcMeServices
 90
     1024
 91
        1
280
     0
281
     0
  0
CLASS
  1
ACRFINSADJUSTERMGR
  2
AcRfInsAdjusterMgr
  3
AcMeServices
 90
     1024
 91
        1
280
     0
281
     0
  0
CLASS
  1
ACGREFACADMASTER
  2
AcGrefacadMaster
  3
AcGrefServices
 90
     1024
 91
        1
280
     0
281
     0
  0
CLASS
  1
AMDTMENUSTATEMGR
  2
AmdtMenuStateMgr
  3
McadcomServices
 90
     1024
 91
        1
280
     0
281
     0
  0
CLASS
  1
AMDTMCOMMENUSTATE
  2
AmdtMcomMenuState
  3
McadcomServices
 90
     1024
 91
        1
280
     0
281
     0
  0
CLASS
  1
AMIMASTER
  2
AmiMaster
  3
AmiServices
 90
     1024
 91
        1
280
     0
281
     0
  0
CLASS
  1
MAPIAMMOUDLE
  2
MApiAmModule
  3
MApiAmServices
 90
     1024
 91
        1
280
     0
281
     0
  0
CLASS
  1
ACIMSTRSYSVAR
  2
AcImStrSysVar
  3
AcMeServices
 90
     1024
 91
        5
280
     0
281
     0
  0
CLASS
  1
AMDTDMMENUSTATE
  2
AmdtDmMenuState
  3
AcMechDwgViewMgmt
 90
     1024
 91
        1
280
     0
281
     0
  0
CLASS
  1
AMDTAMMENUSTATE
  2
AmdtAmMenuState
  3
DesignerAssemblies
 90
     1024
 91
        1
280
     0
281
     0
  0
CLASS
  1
ACAMPROJECT
  2
AcAmProject
  3
DesignerAssemblies
 90
     1024
 91
        1
280
     0
281
     0
  0
CLASS
  1
ACAMGRCOMPDEF
  2
AcAmGrCompDef
  3
DesignerAssemblies
 90
     1024
 91
        1
280
     0
281
     0
  0
CLASS
  1
ACAMCOMPDEF
  2
AcAmCompDef
  3
DesignerAssemblies
 90
     1024
 91
        1
280
     0
281
     0
  0
CLASS
  1
ACAMCOMPDEFMGR
  2
AcAmCompDefMgr
  3
DesignerAssemblies
 90
     1024
 91
        1
280
     0
281
     0
  0
CLASS
  1
AMCONTEXTMGR
  2
AcAmContextMgr
  3
DesignerAssemblies
 90
     1024
 91
        1
280
     0
281
     0
  0
CLASS
  1
ACAMCONTEXTMODELER
  2
AcAmContextModeler
  3
DesignerAssemblies
 90
     1024
 91
        1
280
     0
281
     0
  0
CLASS
  1
ACMDATADICTIONARY
  2
AcmDataDictionary
  3
"AcmSymBB|Product Description: AutoCAD Mechanical|Company: Autodesk, Inc."
 90
     1024
 91
        1
280
     0
281
     0
  0
CLASS
  1
ACAMGRCOMPDEFSET
  2
AcAmGrCompDefSet
  3
DesignerAssemblies
 90
     1024
 91
        1
280
     0
281
     0
  0
CLASS
  1
AMDTBROWSERDBTAB
  2
AmdtBrowserDbTab
  3
McadcomServices
 90
     1024
 91
        1
280
     0
281
     0
  0
CLASS
  1
CBROWSERAPPOBJECT
  2
CBrowserAppObject
  3
McadcomServices
 90
     1024
 91
        2
280
     0
281
     0
  0
CLASS
  1
DM_PLACEHOLDER
  2
AcDmSelsetPlaceholder
  3
AcMechDwgViewMgmt
 90
     1024
 91
        1
280
     0
281
     0
  0
CLASS
  1
EXACXREFPANELOBJECT
  2
ExAcXREFPanelObject
  3
EXAC_ESW
 90
     1025
 91
        1
280
     0
281
     0
  0
CLASS
  1
NPOCOLLECTION
  2
AcDbImpNonPersistentObjectsCollection
  3
ObjectDBX Classes
 90
     1153
 91
        1
280
     0
281
     0
  0
CLASS
  1
ACMSTANDARDISO
  2
AcmStandardISO
  3
"Amdt_StdImp|Product Description: AutoCAD Mechanical|Company: Autodesk, Inc."
 90
     1024
 91
        1
280
     0
281
     0
  0
CLASS
  1
AMDTEDGESTANDARDISO13715
  2
AmdtEdgeStdISO13715
  3
"Amdt_StdImp|Product Description: AutoCAD Mechanical|Company: Autodesk, Inc."
 90
     1024
 91
        1
280
     0
281
     0
  0
CLASS
  1
ACMSURFSTANDARDISO2002
  2
AcmSurfTextStdISO2002
  3
"Amdt_StdImp|Product Description: AutoCAD Mechanical|Company: Autodesk, Inc."
 90
     1024
 91
        1
280
     0
281
     0
  0
CLASS
  1
ACMFCFSTANDARDISO
  2
AcmFCFStdISO
  3
"Amdt_StdImp|Product Description: AutoCAD Mechanical|Company: Autodesk, Inc."
 90
     1024
 91
        1
280
     0
281
     0
  0
CLASS
  1
ACMWELDSTANDARDISO
  2
AcmWeldingStdISO
  3
"Amdt_StdImp|Product Description: AutoCAD Mechanical|Company: Autodesk, Inc."
 90
     1024
 91
        1
280
     0
281
     0
  0
CLASS
  1
ACMIDSTANDARDISO
  2
AcmIdStdISO
  3
"Amdt_StdImp|Product Description: AutoCAD Mechanical|Company: Autodesk, Inc."
 90
     1024
 91
        1
280
     0
281
     0
  0
CLASS
  1
ACMDATUMSTANDARDISO
  2
AcmDatumStdISO
  3
"Amdt_StdImp|Product Description: AutoCAD Mechanical|Company: Autodesk, Inc."
 90
     1024
 91
        1
280
     0
281
     0
  0
CLASS
  1
ACMBOMSTANDARDISO
  2
AcmBOMStdISO
  3
"Amdt_StdImp|Product Description: AutoCAD Mechanical|Company: Autodesk, Inc."
 90
     1024
 91
        1
280
     0
281
     0
  0
CLASS
  1
ACMDETAILSTANDARDISO
  2
AmdtDetailSymStdISO
  3
"Amdt_StdImp|Product Description: AutoCAD Mechanical|Company: Autodesk, Inc."
 90
     1024
 91
        1
280
     0
281
     0
  0
CLASS
  1
ACMSECTIONSTANDARDISO2001
  2
AmdtSectionSymStdISO2001
  3
"Amdt_StdImp|Product Description: AutoCAD Mechanical|Company: Autodesk, Inc."
 90
     1024
 91
        1
280
     0
281
     0
  0
CLASS
  1
ACMCENTERLINESTANDARDISO
  2
AmdtCenterLineStdISO
  3
"Amdt_StdImp|Product Description: AutoCAD Mechanical|Company: Autodesk, Inc."
 90
     1024
 91
        1
280
     0
281
     0
  0
CLASS
  1
ACMTHREADLINESTANDARDISO
  2
AmdtThreadLineStdISO
  3
"Amdt_StdImp|Product Description: AutoCAD Mechanical|Company: Autodesk, Inc."
 90
     1024
 91
        1
280
     0
281
     0
  0
CLASS
  1
ACMNOTESTANDARDISO
  2
AmdtNoteStdISO
  3
"Amdt_StdImp|Product Description: AutoCAD Mechanical|Company: Autodesk, Inc."
 90
     1024
 91
        1
280
     0
281
     0
  0
CLASS
  1
ACMTAPERSTANDARDISO
  2
AcmTaperStdISO
  3
"Amdt_StdImp|Product Description: AutoCAD Mechanical|Company: Autodesk, Inc."
 90
     1024
 91
        1
280
     0
281
     0
  0
CLASS
  1
ACMANOOTATIONVIEWSTANDARDISO
  2
AmdtAnViewStdISO
  3
"Amdt_StdImp|Product Description: AutoCAD Mechanical|Company: Autodesk, Inc."
 90
     1024
 91
        1
280
     0
281
     0
  0
CLASS
  1
ACAMGLAYSTD
  2
AcAmgLayStd
  3
"AmgLay|Product Description: AutoCAD Mechanical|Company: Autodesk, Inc."
 90
     1024
 91
        1
280
     0
281
     0
  0
CLASS
  1
ACAMGDIMSTD
  2
AcAmgDimStd
  3
"AmgDim|Product Description: AutoCAD Mechanical|Company: Autodesk, Inc."
 90
     1024
 91
        1
280
     0
281
     0
  0
CLASS
  1
AMGOBJPROPCFG
  2
AmgObjPropCfg
  3
"AmgLay|Product Description: AutoCAD Mechanical|Company: Autodesk, Inc."
 90
     1025
 91
        1
280
     0
281
     0
  0
CLASS
  1
ACAMGHOLECHARTSTDISO
  2
AcAmgHoleChartStdISO
  3
AmgDim|Product Description: AutoCAD Mechanical|Company: Autodesk, Inc.
 90
     1024
 91
        1
280
     0
281
     0
  0
CLASS
  1
ACAMGTITLESTD
  2
AcAmgTitleStd
  3
"AmgTitle|Product Description: AutoCAD Mechanical|Company: Autodesk, Inc."
 90
     4095
 91
        1
280
     0
281
     0
  0
CLASS
  1
AMDTNOTETEMPLATEDB
  2
AmdtNoteTemplateDB
  3
AcmSymBB|Product Description: AutoCAD Mechanical|Company: Autodesk, Inc.
 90
     1024
 91
        6
280
     0
281
     0
  0
CLASS
  1
ACAMGFILTERDAT
  2
AcAmgFilterDat
  3
"AcadM|Product Description: AutoCAD Mechanical|Company: Autodesk, Inc."
 90
     1024
 91
        0
280
     0
281
     0
  0
CLASS
  1
CELLSTYLEMAP
  2
AcDbCellStyleMap
  3
ObjectDBX Classes
 90
     1152
 91
        2
280
     0
281
     0
  0
CLASS
  1
ACMDIMBREAKPERSREACTOR
  2
AcmDimBreakPersReactor
  3
AmgDim|Product Description: AutoCAD Mechanical|Company: Autodesk, Inc.
 90
     4095
 91
        2
280
     0
281
     0
  0
CLASS
  1
ACMSTANDARDANSI
  2
AcmStandardANSI
  3
"Amdt_StdImp|Product Description: AutoCAD Mechanical|Company: Autodesk, Inc."
 90
     1024
 91
        0
280
     0
281
     0
  0
CLASS
  1
ACMSURFSTANDARDANSI
  2
AcmSurfTextStdANSI
  3
"Amdt_StdImp|Product Description: AutoCAD Mechanical|Company: Autodesk, Inc."
 90
     1024
 91
        0
280
     0
281
     0
  0
CLASS
  1
ACMFCFSTANDARDANSI
  2
AcmFCFStdANSI
  3
"Amdt_StdImp|Product Description: AutoCAD Mechanical|Company: Autodesk, Inc."
 90
     1024
 91
        0
280
     0
281
     0
  0
CLASS
  1
ACMWELDSTANDARDANSI
  2
AcmWeldingStdANSI
  3
"Amdt_StdImp|Product Description: AutoCAD Mechanical|Company: Autodesk, Inc."
 90
     1024
 91
        0
280
     0
281
     0
  0
CLASS
  1
ACMIDSTANDARDANSI
  2
AcmIdStdANSI
  3
"Amdt_StdImp|Product Description: AutoCAD Mechanical|Company: Autodesk, Inc."
 90
     1024
 91
        0
280
     0
281
     0
  0
CLASS
  1
ACMDATUMSTANDARDANSI
  2
AcmDatumStdANSI
  3
"Amdt_StdImp|Product Description: AutoCAD Mechanical|Company: Autodesk, Inc."
 90
     1024
 91
        0
280
     0
281
     0
  0
CLASS
  1
ACMBOMSTANDARDANSI
  2
AcmBOMStdANSI
  3
"Amdt_StdImp|Product Description: AutoCAD Mechanical|Company: Autodesk, Inc."
 90
     1024
 91
        0
280
     0
281
     0
  0
CLASS
  1
ACMDETAILSTANDARDANSI
  2
AmdtDetailSymStdANSI
  3
"Amdt_StdImp|Product Description: AutoCAD Mechanical|Company: Autodesk, Inc."
 90
     1024
 91
        0
280
     0
281
     0
  0
CLASS
  1
ACMSECTIONSTANDARDANSI
  2
AmdtSectionSymStdANSI
  3
"Amdt_StdImp|Product Description: AutoCAD Mechanical|Company: Autodesk, Inc."
 90
     1024
 91
        0
280
     0
281
     0
  0
CLASS
  1
ACMCENTERLINESTANDARDANSI
  2
AmdtCenterLineStdANSI
  3
"Amdt_StdImp|Product Description: AutoCAD Mechanical|Company: Autodesk, Inc."
 90
     1024
 91
        0
280
     0
281
     0
  0
CLASS
  1
ACMTHREADLINESTANDARDANSI
  2
AmdtThreadLineStdANSI
  3
"Amdt_StdImp|Product Description: AutoCAD Mechanical|Company: Autodesk, Inc."
 90
     1024
 91
        0
280
     0
281
     0
  0
CLASS
  1
ACMNOTESTANDARDANSI
  2
AmdtNoteStdANSI
  3
"Amdt_StdImp|Product Description: AutoCAD Mechanical|Company: Autodesk, Inc."
 90
     1024
 91
        0
280
     0
281
     0
  0
CLASS
  1
ACMTAPERSTANDARDANSI
  2
AcmTaperStdANSI
  3
"Amdt_StdImp|Product Description: AutoCAD Mechanical|Company: Autodesk, Inc."
 90
     1024
 91
        0
280
     0
281
     0
  0
CLASS
  1
ACMANOOTATIONVIEWSTANDARDANSI
  2
AmdtAnViewStdANSI
  3
"Amdt_StdImp|Product Description: AutoCAD Mechanical|Company: Autodesk, Inc."
 90
     1024
 91
        0
280
     0
281
     0
  0
CLASS
  1
ACAMGHOLECHARTSTDANSI
  2
AcAmgHoleChartStdANSI
  3
AmgDim|Product Description: AutoCAD Mechanical|Company: Autodesk, Inc.
 90
     1024
 91
        0
280
     0
281
     0
  0
ENDSEC
  0
SECTION
  2
TABLES
  0
TABLE
  2
VPORT
  5
8
102
{ACAD_XDICTIONARY
360
8B78
102
}
330
0
100
AcDbSymbolTable
 70
     1
  0
VPORT
  5
8A6D
330
8
100
AcDbSymbolTableRecord
100
AcDbViewportTableRecord
  2
*Active
 70
     0
 10
0.0
 20
0.0
 11
1.0
 21
1.0
 12
212.9895305125452
 22
108.8474250308502
 13
0.0
 23
0.0
 14
10.0
 24
10.0
 15
10.0
 25
10.0
 16
0.0
 26
0.0
 36
1.0
 17
0.0
 27
0.0
 37
0.0
 40
306.2762874451633
 41
1.764004767580452
 42
50.0
 43
0.0
 44
0.0
 50
0.0
 51
0.0
 71
     0
 72
 20000
 73
     1
 74
     3
 75
     0
 76
     0
 77
     0
 78
     0
281
     0
 65
     1
110
0.0
120
0.0
130
0.0
111
1.0
121
0.0
131
0.0
112
0.0
122
1.0
132
0.0
 79
     0
146
0.0
348
8A8D
 60
     3
 61
     5
292
     1
282
     1
141
0.0
142
0.0
 63
   250
421
  3355443
  0
ENDTAB
  0
TABLE
  2
LTYPE
  5
5
330
0
100
AcDbSymbolTable
 70
    23
  0
LTYPE
  5
14
330
5
100
AcDbSymbolTableRecord
100
AcDbLinetypeTableRecord
  2
ByBlock
 70
     0
  3

 72
    65
 73
     0
 40
0.0
  0
LTYPE
  5
15
330
5
100
AcDbSymbolTableRecord
100
AcDbLinetypeTableRecord
  2
ByLayer
 70
     0
  3

 72
    65
 73
     0
 40
0.0
  0
LTYPE
  5
16
330
5
100
AcDbSymbolTableRecord
100
AcDbLinetypeTableRecord
  2
Continuous
 70
     0
  3
Solid line
 72
    65
 73
     0
 40
0.0
  0
LTYPE
  5
109
330
5
100
AcDbSymbolTableRecord
100
AcDbLinetypeTableRecord
  2
1
 70
     0
  3

 72
    65
 73
     5
 40
22.2
 49
12.0
 74
     0
 49
-1.0
 74
     0
 49
0.2
 74
     0
 49
-1.0
 74
     0
 49
8.0
 74
     0
  0
LTYPE
  5
10A
330
5
100
AcDbSymbolTableRecord
100
AcDbLinetypeTableRecord
  2
CENTER2
 70
     0
  3
Center (.5x) ___ _ ___ _ ___ _ ___ _ ___ _ ___
 72
    65
 73
     4
 40
28.575
 49
19.05
 74
     0
 49
-3.174999999999999
 74
     0
 49
3.174999999999999
 74
     0
 49
-3.174999999999999
 74
     0
  0
LTYPE
  5
10B
330
5
100
AcDbSymbolTableRecord
100
AcDbLinetypeTableRecord
  2
HIDDEN
 70
     0
  3
Hidden __ __ __ __ __ __ __ __ __ __ __ __ __ _
 72
    65
 73
     2
 40
9.524999999999998
 49
6.349999999999999
 74
     0
 49
-3.174999999999999
 74
     0
  0
LTYPE
  5
10C
330
5
100
AcDbSymbolTableRecord
100
AcDbLinetypeTableRecord
  2
CENTERX2
 70
     0
  3
Center (2x) ________  __  ________  __  _____
 72
    65
 73
     4
 40
101.6
 49
63.5
 74
     0
 49
-12.7
 74
     0
 49
12.7
 74
     0
 49
-12.7
 74
     0
  0
LTYPE
  5
10D
330
5
100
AcDbSymbolTableRecord
100
AcDbLinetypeTableRecord
  2
HIDDEN2
 70
     0
  3
Hidden (.5x) _ _ _ _ _ _ _ _ _ _ _ _ _ _ _ _ _
 72
    65
 73
     2
 40
4.762499999999999
 49
3.174999999999999
 74
     0
 49
-1.587499999999999
 74
     0
  0
LTYPE
  5
10E
330
5
100
AcDbSymbolTableRecord
100
AcDbLinetypeTableRecord
  2
DIVIDE
 70
     0
  3
Divide ____ . . ____ . . ____ . . ____ . . ____
 72
    65
 73
     6
 40
31.75
 49
12.7
 74
     0
 49
-6.349999999999999
 74
     0
 49
0.0
 74
     0
 49
-6.349999999999999
 74
     0
 49
0.0
 74
     0
 49
-6.349999999999999
 74
     0
  0
LTYPE
  5
86C
330
5
100
AcDbSymbolTableRecord
100
AcDbLinetypeTableRecord
  2
CENTER
 70
     0
  3
Center ____ _ ____ _ ____ _ ____ _ ____ _ ____
 72
    65
 73
     4
 40
50.8
 49
31.75
 74
     0
 49
-6.349999999999999
 74
     0
 49
6.349999999999999
 74
     0
 49
-6.349999999999999
 74
     0
  0
LTYPE
  5
11E2
330
5
100
AcDbSymbolTableRecord
100
AcDbLinetypeTableRecord
  2
DASHEDX2
 70
     0
  3
Dashed (2x) ____  ____  ____  ____  ____  ___
 72
    65
 73
     2
 40
38.1
 49
25.4
 74
     0
 49
-12.7
 74
     0
  0
LTYPE
  5
8AEE
330
5
100
AcDbSymbolTableRecord
100
AcDbLinetypeTableRecord
  2
PHANTOM2
 70
     0
  3
Phantom (.5x) ___ _ _ ___ _ _ ___ _ _ ___ _ _
 72
    65
 73
     6
 40
31.75
 49
15.875
 74
     0
 49
-3.174999999999999
 74
     0
 49
3.174999999999999
 74
     0
 49
-3.174999999999999
 74
     0
 49
3.174999999999999
 74
     0
 49
-3.174999999999999
 74
     0
  0
LTYPE
  5
8B2E
330
5
100
AcDbSymbolTableRecord
100
AcDbLinetypeTableRecord
  2
AM_ISO02W050
 70
     0
  3
__ __ __ __ __ __ __ __ __ __ __ __ __ __ __
 72
    65
 73
     2
 40
7.5
 49
6.0
 74
     0
 49
-1.5
 74
     0
  0
LTYPE
  5
8B2F
330
5
100
AcDbSymbolTableRecord
100
AcDbLinetypeTableRecord
  2
AM_ISO08W050
 70
     0
  3
____ . ____ . ____ . ____ . ____ . ____ . ____
 72
    65
 73
     4
 40
18.0
 49
12.0
 74
     0
 49
-1.5
 74
     0
 49
3.0
 74
     0
 49
-1.5
 74
     0
  0
LTYPE
  5
8B30
330
5
100
AcDbSymbolTableRecord
100
AcDbLinetypeTableRecord
  2
AM_ISO09W050
 70
     0
  3
_____ . . _____ . . _____ . . ____ .. ____
 72
    65
 73
     6
 40
22.5
 49
12.0
 74
     0
 49
-1.5
 74
     0
 49
3.0
 74
     0
 49
-1.5
 74
     0
 49
3.0
 74
     0
 49
-1.5
 74
     0
  0
LTYPE
  5
8B31
330
5
100
AcDbSymbolTableRecord
100
AcDbLinetypeTableRecord
  2
Amconstr
 70
     0
  3
_______________________
 72
    65
 73
     2
 40
9999.0
 49
9999.0
 74
     0
 49
0.0
 74
     0
  0
LTYPE
  5
8B32
330
5
100
AcDbSymbolTableRecord
100
AcDbLinetypeTableRecord
  2
AM_ISO08W050x2
 70
     0
  3
__ . __ . __ . __ . __ . __
 72
    65
 73
     4
 40
9.0
 49
6.0
 74
     0
 49
-0.75
 74
     0
 49
1.5
 74
     0
 49
-0.75
 74
     0
  0
LTYPE
  5
8B33
330
5
100
AcDbSymbolTableRecord
100
AcDbLinetypeTableRecord
  2
AM_ISO02W050x2
 70
     0
  3
 _ _ _ _ _ _ _ _ _ _ _ _
 72
    65
 73
     2
 40
3.75
 49
3.0
 74
     0
 49
-0.75
 74
     0
  0
LTYPE
  5
8B36
330
5
100
AcDbSymbolTableRecord
100
AcDbLinetypeTableRecord
  2
Amzigzag
 70
     0
  3
/\/-/\/-/\/-/\/-/\/-/\/
 72
    65
 73
     2
 40
11.0001
 49
0.0001
 74
     4
 75
   136
340
8B35
 46
0.04
 50
0.0
 44
0.0
 45
0.0
 49
-11.0
 74
     0
  0
LTYPE
  5
8B45
330
5
100
AcDbSymbolTableRecord
100
AcDbLinetypeTableRecord
  2
ACISOWELD
 70
     0
  3
_ _ _ _ _
 72
    65
 73
     2
 40
2.0
 49
2.0
 74
     0
 49
-1.0
 74
     0
  0
LTYPE
  5
8B46
330
5
100
AcDbSymbolTableRecord
100
AcDbLinetypeTableRecord
  2
ACISOTGB
 70
     0
  3
__ . . __ . .
 72
    65
 73
     6
 40
9.0
 49
4.0
 74
     0
 49
-1.0
 74
     0
 49
1.0
 74
     0
 49
-1.0
 74
     0
 49
1.0
 74
     0
 49
-1.0
 74
     0
  0
LTYPE
  5
8B47
330
5
100
AcDbSymbolTableRecord
100
AcDbLinetypeTableRecord
  2
ACISOTGL
 70
     0
  3
_ _ _ _ _
 72
    65
 73
     2
 40
3.0
 49
2.0
 74
     0
 49
-1.0
 74
     0
  0
LTYPE
  5
8D22
330
5
100
AcDbSymbolTableRecord
100
AcDbLinetypeTableRecord
  2
Amzigzag2
 70
     0
  3
/\/-/\/-/\/-/\/-/\/-/\/
 72
    65
 73
     2
 40
0.4401
 49
0.0001
 74
     4
 75
   136
340
8B35
 46
0.0016
 50
0.0
 44
0.0
 45
0.0
 49
-0.4400000000000001
 74
     0
  0
LTYPE
  5
8D23
330
5
100
AcDbSymbolTableRecord
100
AcDbLinetypeTableRecord
  2
ACANSTGB
 70
     0
  3
__ . . __ . .
 72
    65
 73
     6
 40
0.35433070866
 49
0.15748031496
 74
     0
 49
-0.03937007874
 74
     0
 49
0.03937007874
 74
     0
 49
-0.03937007874
 74
     0
 49
0.03937007874
 74
     0
 49
-0.03937007874
 74
     0
  0
LTYPE
  5
8D24
330
5
100
AcDbSymbolTableRecord
100
AcDbLinetypeTableRecord
  2
ACANSTGL
 70
     0
  3
_ _ _ _ _
 72
    65
 73
     2
 40
0.11811023622
 49
0.07874015748
 74
     0
 49
-0.03937007874
 74
     0
  0
ENDTAB
  0
TABLE
  2
LAYER
  5
2
102
{ACAD_XDICTIONARY
360
86D
102
}
330
0
100
AcDbSymbolTable
 70
     9
  0
LAYER
  5
10
102
{ACAD_XDICTIONARY
360
8B4E
102
}
330
2
100
AcDbSymbolTableRecord
100
AcDbLayerTableRecord
  2
0
 70
     0
 62
     7
  6
Continuous
370
    -3
390
F
347
8A7F
  0
LAYER
  5
112
102
{ACAD_XDICTIONARY
360
8B50
102
}
330
2
100
AcDbSymbolTableRecord
100
AcDbLayerTableRecord
  2
mark
 70
     0
 62
     6
  6
Continuous
370
    -3
390
F
347
8A7F
  0
LAYER
  5
114
102
{ACAD_XDICTIONARY
360
8B52
102
}
330
2
100
AcDbSymbolTableRecord
100
AcDbLayerTableRecord
  2
center
 70
     0
 62
     1
  6
CENTER2
370
    -3
390
F
347
8A7F
  0
LAYER
  5
8A7
330
2
100
AcDbSymbolTableRecord
100
AcDbLayerTableRecord
  2
Defpoints
 70
     0
 62
     7
  6
Continuous
290
     0
370
    -3
390
F
347
8A7F
  0
LAYER
  5
8A8
102
{ACAD_XDICTIONARY
360
8B54
102
}
330
2
100
AcDbSymbolTableRecord
100
AcDbLayerTableRecord
  2
frame
 70
     0
 62
     9
  6
Continuous
370
    30
390
F
347
8A7F
  0
LAYER
  5
8A9
102
{ACAD_XDICTIONARY
360
8B56
102
}
330
2
100
AcDbSymbolTableRecord
100
AcDbLayerTableRecord
  2
dim
 70
     0
 62
     3
  6
Continuous
370
    -3
390
F
347
8A7F
1001
AcAecLayerStandard
1000

1000

  0
LAYER
  5
8AA
102
{ACAD_XDICTIONARY
360
8B58
102
}
330
2
100
AcDbSymbolTableRecord
100
AcDbLayerTableRecord
  2
contour
 70
     0
 62
     2
  6
Continuous
370
    -3
390
F
347
8A7F
1001
AcAecLayerStandard
1000

1000

  0
LAYER
  5
8AB
102
{ACAD_XDICTIONARY
360
8B5A
102
}
330
2
100
AcDbSymbolTableRecord
100
AcDbLayerTableRecord
  2
bowel
 70
     0
 62
     4
  6
HIDDEN2
370
    -3
390
F
347
8A7F
1001
AcAecLayerStandard
1000

1000

  0
LAYER
  5
4693
102
{ACAD_XDICTIONARY
360
8B5C
102
}
330
2
100
AcDbSymbolTableRecord
100
AcDbLayerTableRecord
  2
section
 70
     0
 62
     5
  6
Continuous
370
    -3
390
F
347
8A7F
1001
AcAecLayerStandard
1000

1000

  0
ENDTAB
  0
TABLE
  2
STYLE
  5
3
330
0
100
AcDbSymbolTable
 70
    10
  0
STYLE
  5
11
330
3
100
AcDbSymbolTableRecord
100
AcDbTextStyleTableRecord
  2
Standard
 70
     0
 40
0.0
 41
1.0
 50
0.0
 71
     0
 42
2.5
  3
txt.shx
  4
bigfont.shx
  0
STYLE
  5
86B
330
3
100
AcDbSymbolTableRecord
100
AcDbTextStyleTableRecord
  2

 70
     1
 40
0.0
 41
1.0
 50
0.0
 71
     0
 42
2.5
  3
ltypeshp.shx
  4

  0
STYLE
  5
8AD
330
3
100
AcDbSymbolTableRecord
100
AcDbTextStyleTableRecord
  2
TW
 70
     0
 40
0.0
 41
1.0
 50
0.0
 71
     0
 42
1.0
  3
txt.shx
  4
chineset.shx
  0
STYLE
  5
8AE
330
3
100
AcDbSymbolTableRecord
100
AcDbTextStyleTableRecord
  2
CN
 70
     0
 40
0.0
 41
1.0
 50
0.0
 71
     0
 42
6.0
  3
txt.shx
  4
gbcbig.shx
  0
STYLE
  5
8B35
330
3
100
AcDbSymbolTableRecord
100
AcDbTextStyleTableRecord
  2

 70
     1
 40
0.0
 41
1.0
 50
0.0
 71
     0
 42
2.5
  3
genltshp.shx
  4

  0
STYLE
  5
8B43
330
3
100
AcDbSymbolTableRecord
100
AcDbTextStyleTableRecord
  2
ACISOTS
 70
     0
 40
1.0
 41
1.0
 50
0.0
 71
     0
 42
2.5
  3
isocp.shx
  4
chineset.shx
  0
STYLE
  5
8B44
330
3
100
AcDbSymbolTableRecord
100
AcDbTextStyleTableRecord
  2
ACISOGDT
 70
     0
 40
0.0
 41
1.0
 50
0.0
 71
     0
 42
2.5
  3
amgdt.shx
  4

  0
STYLE
  5
8D25
330
3
100
AcDbSymbolTableRecord
100
AcDbTextStyleTableRecord
  2
ACANSGDT
 70
     0
 40
0.0
 41
1.0
 50
0.0
 71
     0
 42
0.2
  3
amgdt.shx
  4

  0
ENDTAB
  0
TABLE
  2
VIEW
  5
6
330
0
100
AcDbSymbolTable
 70
     0
  0
ENDTAB
  0
TABLE
  2
UCS
  5
7
330
0
100
AcDbSymbolTable
 70
     0
  0
ENDTAB
  0
TABLE
  2
APPID
  5
9
330
0
100
AcDbSymbolTable
 70
    25
  0
APPID
  5
12
330
9
100
AcDbSymbolTableRecord
100
AcDbRegAppTableRecord
  2
ACAD
 70
     0
  0
APPID
  5
9E
330
9
100
AcDbSymbolTableRecord
100
AcDbRegAppTableRecord
  2
ACAD_PSEXT
 70
     0
  0
APPID
  5
8AF
330
9
100
AcDbSymbolTableRecord
100
AcDbRegAppTableRecord
  2
AcAecLayerStandard
 70
     0
  0
APPID
  5
8B0
330
9
100
AcDbSymbolTableRecord
100
AcDbRegAppTableRecord
  2
ACAD_DSTYLE_DIMEXT_LENGTH
 70
     0
  0
APPID
  5
8B1
330
9
100
AcDbSymbolTableRecord
100
AcDbRegAppTableRecord
  2
ACAD_DSTYLE_DIMEXT_ENABLED
 70
     0
  0
APPID
  5
8B2
330
9
100
AcDbSymbolTableRecord
100
AcDbRegAppTableRecord
  2
ACAD_DSTYLE_DIMJOGGED_JOGANGLE_SYMBOL
 70
     0
  0
APPID
  5
8B3
330
9
100
AcDbSymbolTableRecord
100
AcDbRegAppTableRecord
  2
ACAD_DSTYLE_DIMARC_LENGTH_SYMBOL
 70
     0
  0
APPID
  5
9CF
330
9
100
AcDbSymbolTableRecord
100
AcDbRegAppTableRecord
  2
ACAD_EXEMPT_FROM_CAD_STANDARDS
 70
     0
  0
APPID
  5
A09
330
9
100
AcDbSymbolTableRecord
100
AcDbRegAppTableRecord
  2
ACAD_DSTYLE_DIMTEXT_FILL
 70
     0
  0
APPID
  5
A0C
330
9
100
AcDbSymbolTableRecord
100
AcDbRegAppTableRecord
  2
ACAD_DSTYLE_DIM_LINETYPE
 70
     0
  0
APPID
  5
A0D
330
9
100
AcDbSymbolTableRecord
100
AcDbRegAppTableRecord
  2
ACAD_DSTYLE_DIM_EXT1_LINETYPE
 70
     0
  0
APPID
  5
A0E
330
9
100
AcDbSymbolTableRecord
100
AcDbRegAppTableRecord
  2
ACAD_DSTYLE_DIM_EXT2_LINETYPE
 70
     0
  0
APPID
  5
8AB4
330
9
100
AcDbSymbolTableRecord
100
AcDbRegAppTableRecord
  2
ACADSTRINGINFO
 70
     0
  0
APPID
  5
8AC3
330
9
100
AcDbSymbolTableRecord
100
AcDbRegAppTableRecord
  2
MCAD_NO_VIS
 70
     0
  0
APPID
  5
8AC4
330
9
100
AcDbSymbolTableRecord
100
AcDbRegAppTableRecord
  2
ACAD_TEMP_GRAPHIC
 70
     0
  0
APPID
  5
8AF0
330
9
100
AcDbSymbolTableRecord
100
AcDbRegAppTableRecord
  2
AD_DRAW
 70
     0
  0
APPID
  5
8AF3
330
9
100
AcDbSymbolTableRecord
100
AcDbRegAppTableRecord
  2
ACATTRIBSERVICES
 70
     0
  0
APPID
  5
8B0C
330
9
100
AcDbSymbolTableRecord
100
AcDbRegAppTableRecord
  2
DESIGNERASSEMBLIES
 70
     0
  0
APPID
  5
8B11
330
9
100
AcDbSymbolTableRecord
100
AcDbRegAppTableRecord
  2
ACADM_DIM_EDIT
 70
     0
  0
APPID
  5
8B12
330
9
100
AcDbSymbolTableRecord
100
AcDbRegAppTableRecord
  2
AMDT_DM_ADJ
 70
     0
  0
APPID
  5
8B2B
330
9
100
AcDbSymbolTableRecord
100
AcDbRegAppTableRecord
  2
ACAD_DSTYLE_DIMJAG
 70
     0
  0
APPID
  5
8B2C
330
9
100
AcDbSymbolTableRecord
100
AcDbRegAppTableRecord
  2
ACAD_DSTYLE_DIMBREAK
 70
     0
  0
APPID
  5
8BC2
330
9
100
AcDbSymbolTableRecord
100
AcDbRegAppTableRecord
  2
ACAD_MLEADERVER
 70
     0
  0
APPID
  5
8D2C
330
9
100
AcDbSymbolTableRecord
100
AcDbRegAppTableRecord
  2
ACAD_DSTYLE_DIMTALN
 70
     0
  0
APPID
  5
8D2D
330
9
100
AcDbSymbolTableRecord
100
AcDbRegAppTableRecord
  2
ACAD_NAV_VCDISPLAY
 70
     0
  0
ENDTAB
  0
TABLE
  2
DIMSTYLE
  5
A
330
0
100
AcDbSymbolTable
 70
    18
100
AcDbDimStyleTable
 71
     2
340
27
340
5822
  0
DIMSTYLE
105
27
102
{ACAD_REACTORS
330
91C1
330
91D9
330
91F1
330
9209
330
9225
330
9289
330
92A8
330
92C0
330
9332
330
945C
330
97F2
330
980E
102
}
330
A
100
AcDbSymbolTableRecord
100
AcDbDimStyleTableRecord
  2
ISO-25
 70
     0
 41
2.5
 42
0.85
 43
1.6
 44
0.85
 49
1.25
 50
90.0
 73
     0
 77
     1
 78
     8
 79
     2
140
2.5
141
2.7
143
0.03937007874016
147
0.85
171
     3
172
     1
176
   256
177
   256
178
     3
179
     2
271
     2
272
     2
274
     3
278
    44
283
     0
284
     8
340
11
341
87B
342
87B
1001
ACAD_DSTYLE_DIMJAG
1070
   388
1040
1.5
1001
ACAD_DSTYLE_DIMTALN
1070
   392
1070
     0
1001
ACAD_DSTYLE_DIMJOGGED_JOGANGLE_SYMBOL
1070
   384
1040
1.570796326794896
  0
DIMSTYLE
105
5822
330
A
100
AcDbSymbolTableRecord
100
AcDbDimStyleTableRecord
  2
Standard
 70
     0
 40
0.5
 41
4.0
 42
1.35
 44
1.35
 49
0.18
 73
     0
 74
     0
 77
     1
 78
     8
 79
     2
140
4.0
147
1.35
172
     1
176
   256
177
   256
178
     3
179
     2
271
     2
272
     2
340
11
341
87B
342
87B
1001
ACAD_DSTYLE_DIMJOGGED_JOGANGLE_SYMBOL
1070
   384
1040
0.7853981633974483
1001
ACAD_DSTYLE_DIMJAG
1070
   388
1040
1.5
1001
ACAD_DSTYLE_DIMTALN
1070
   392
1070
     0
  0
DIMSTYLE
105
6724
330
A
100
AcDbSymbolTableRecord
100
AcDbDimStyleTableRecord
  2
C
 70
     0
 41
2.6
 42
1.0
 43
8.0
 44
1.5
 73
     0
 74
     0
 77
     1
 78
     8
140
3.0
141
0.0
143
0.0394
147
1.0
171
     4
172
     1
176
     4
177
     4
178
     3
271
     1
274
     4
279
     2
284
     8
285
     8
286
     8
340
11
  0
DIMSTYLE
105
8B2A
102
{ACAD_REACTORS
330
9ACA
102
}
330
A
100
AcDbSymbolTableRecord
100
AcDbDimStyleTableRecord
  2
AM_ISO
 70
     0
  4
"
 41
3.5
 42
1.0
 43
10.0
 44
1.0
 47
0.1
 48
0.1
 73
     0
 74
     0
 77
     1
 78
     8
 79
     2
 90
     1
140
3.5
141
0.0
143
0.0393701
146
0.71
147
1.5
172
     1
176
   256
177
   256
178
     2
271
     2
272
     3
274
     4
283
     0
284
     8
340
11
345
14
346
14
347
14
371
    -1
372
    -1
1001
ACAD_DSTYLE_DIMJAG
1070
   388
1040
1.5
1001
ACAD_DSTYLE_DIMBREAK
1070
   391
1040
3.75
  0
DIMSTYLE
105
8B37
330
A
100
AcDbSymbolTableRecord
100
AcDbDimStyleTableRecord
  2
AM_ISO$3
 70
     0
  4
"
 41
3.5
 42
1.0
 43
10.0
 44
1.0
 47
0.1
 48
0.1
 73
     0
 77
     1
 78
     8
 79
     2
 90
     1
140
3.5
141
0.0
143
0.0393701
146
0.71
147
1.5
176
   256
177
   256
178
     2
271
     2
272
     3
274
     4
283
     0
284
     8
288
     1
289
     0
340
11
345
14
346
14
347
14
371
    -1
372
    -1
1001
ACAD_DSTYLE_DIMBREAK
1070
   391
1040
3.75
1001
ACAD_DSTYLE_DIMJAG
1070
   388
1040
1.5
  0
DIMSTYLE
105
8B38
330
A
100
AcDbSymbolTableRecord
100
AcDbDimStyleTableRecord
  2
AM_ISO$4
 70
     0
  4
"
 41
3.5
 42
1.0
 43
10.0
 44
1.0
 47
0.1
 48
0.1
 73
     0
 77
     1
 78
     8
 79
     2
 90
     1
140
3.5
141
0.0
143
0.0393701
146
0.71
147
1.5
176
   256
177
   256
178
     2
271
     2
272
     3
274
     4
283
     0
284
     8
288
     1
289
     0
340
11
345
14
346
14
347
14
371
    -1
372
    -1
1001
ACAD_DSTYLE_DIMBREAK
1070
   391
1040
3.75
1001
ACAD_DSTYLE_DIMJAG
1070
   388
1040
1.5
  0
DIMSTYLE
105
8B39
330
A
100
AcDbSymbolTableRecord
100
AcDbDimStyleTableRecord
  2
AM_ISO$6
 70
     0
  4
"
 41
3.5
 42
1.0
 43
10.0
 44
1.0
 47
0.1
 48
0.1
 73
     0
 74
     0
 78
     8
 79
     2
 90
     1
140
3.5
141
0.0
143
0.0393701
146
0.71
147
1.5
172
     1
176
   256
177
   256
178
     2
271
     2
272
     3
274
     4
283
     0
284
     8
340
11
345
14
346
14
347
14
371
    -1
372
    -1
1001
ACAD_DSTYLE_DIMBREAK
1070
   391
1040
3.75
1001
ACAD_DSTYLE_DIMJAG
1070
   388
1040
1.5
  0
DIMSTYLE
105
8B3A
330
A
100
AcDbSymbolTableRecord
100
AcDbDimStyleTableRecord
  2
AM_ISO$7
 70
     0
  4
"
 41
3.5
 42
1.0
 43
10.0
 44
1.0
 47
0.1
 48
0.1
 73
     0
 74
     0
 77
     1
 78
     8
 79
     2
 90
     1
140
3.5
141
0.0
143
0.0393701
146
0.71
147
1.5
172
     1
176
   256
177
   256
178
     2
271
     2
272
     3
274
     4
283
     0
284
     8
340
11
345
14
346
14
347
14
371
    -1
372
    -1
1001
ACAD_DSTYLE_DIMBREAK
1070
   391
1040
3.75
1001
ACAD_DSTYLE_DIMJAG
1070
   388
1040
1.5
  0
DIMSTYLE
105
8B3B
330
A
100
AcDbSymbolTableRecord
100
AcDbDimStyleTableRecord
  2
AM_ISO$SF
 70
     0
  4
"
 41
3.5
 42
1.0
 43
10.0
 44
1.0
 47
0.1
 48
0.1
 73
     0
 74
     0
 75
     1
 76
     1
 77
     1
 78
     8
 79
     2
 90
     1
140
3.5
141
0.0
143
0.0393701
146
0.71
147
1.5
172
     1
176
   256
177
   256
178
     2
271
     2
272
     3
274
     4
283
     0
284
     8
340
11
345
14
346
14
347
14
371
    -1
372
    -1
1001
ACAD_DSTYLE_DIMBREAK
1070
   391
1040
3.75
1001
ACAD_DSTYLE_DIMJAG
1070
   388
1040
1.5
  0
DIMSTYLE
105
8B40
330
A
100
AcDbSymbolTableRecord
100
AcDbDimStyleTableRecord
  2
AM_ISO$SH
 70
     0
  4
"
 41
3.5
 42
1.0
 43
10.0
 44
1.0
 47
0.1
 48
0.1
 73
     0
 74
     0
 75
     1
 76
     1
 77
     1
 78
     8
 79
     2
 90
     1
140
3.5
141
0.0
143
0.0393701
144
2.0
146
0.71
147
1.5
172
     1
173
     1
176
   256
177
   256
178
     2
271
     2
272
     3
274
     4
283
     0
284
     8
340
11
343
8B3C
345
14
346
14
347
14
371
    -1
372
    -1
1001
ACAD_DSTYLE_DIMBREAK
1070
   391
1040
3.75
1001
ACAD_DSTYLE_DIMJAG
1070
   388
1040
1.5
  0
DIMSTYLE
105
8D26
330
A
100
AcDbSymbolTableRecord
100
AcDbDimStyleTableRecord
  2
AM_ANSI
 70
     0
  4
mm
 41
0.12
 42
0.05
 43
0.5
 44
0.1
 47
0.1
 48
0.1
 78
     7
 79
     2
 90
     1
140
0.12
141
0.0
146
0.71
147
0.06
176
   256
177
   256
178
     2
274
     4
284
     7
340
11
345
14
346
14
347
14
371
    -1
372
    -1
1001
ACAD_DSTYLE_DIMJAG
1070
   388
1040
1.5
1001
ACAD_DSTYLE_DIMBREAK
1070
   391
1040
0.125
  0
DIMSTYLE
105
8D27
330
A
100
AcDbSymbolTableRecord
100
AcDbDimStyleTableRecord
  2
AM_ANSI$3
 70
     0
  4
mm
 41
0.12
 42
0.05
 43
0.5
 44
0.1
 47
0.1
 48
0.1
 78
     7
 79
     2
 90
     1
140
0.12
141
0.0
146
0.71
147
0.06
176
   256
177
   256
178
     2
274
     4
284
     7
288
     1
289
     0
340
11
345
14
346
14
347
14
371
    -1
372
    -1
1001
ACAD_DSTYLE_DIMBREAK
1070
   391
1040
0.125
1001
ACAD_DSTYLE_DIMJAG
1070
   388
1040
1.5
  0
DIMSTYLE
105
8D28
330
A
100
AcDbSymbolTableRecord
100
AcDbDimStyleTableRecord
  2
AM_ANSI$4
 70
     0
  4
mm
 41
0.12
 42
0.05
 43
0.5
 44
0.1
 47
0.1
 48
0.1
 78
     7
 79
     2
 90
     1
140
0.12
141
0.0
146
0.71
147
0.06
176
   256
177
   256
178
     2
274
     4
284
     7
288
     1
289
     0
340
11
345
14
346
14
347
14
371
    -1
372
    -1
1001
ACAD_DSTYLE_DIMBREAK
1070
   391
1040
0.125
1001
ACAD_DSTYLE_DIMJAG
1070
   388
1040
1.5
  0
DIMSTYLE
105
8D29
330
A
100
AcDbSymbolTableRecord
100
AcDbDimStyleTableRecord
  2
AM_ANSI$7
 70
     0
  4
mm
 41
0.12
 42
0.05
 43
0.5
 44
0.1
 47
0.1
 48
0.1
 78
     7
 79
     2
 90
     1
140
0.12
141
0.0
146
0.71
147
0.06
176
   256
177
   256
178
     2
274
     4
284
     7
340
11
345
14
346
14
347
14
371
    -1
372
    -1
1001
ACAD_DSTYLE_DIMBREAK
1070
   391
1040
0.125
1001
ACAD_DSTYLE_DIMJAG
1070
   388
1040
1.5
  0
DIMSTYLE
105
8D2A
330
A
100
AcDbSymbolTableRecord
100
AcDbDimStyleTableRecord
  2
AM_ANSI$SF
 70
     0
  4
mm
 41
0.12
 42
0.05
 43
0.5
 44
0.1
 47
0.1
 48
0.1
 75
     1
 76
     1
 78
     7
 79
     2
 90
     1
140
0.12
141
0.0
146
0.71
147
0.06
176
   256
177
   256
178
     2
274
     4
284
     7
340
11
345
14
346
14
347
14
371
    -1
372
    -1
1001
ACAD_DSTYLE_DIMBREAK
1070
   391
1040
0.125
1001
ACAD_DSTYLE_DIMJAG
1070
   388
1040
1.5
  0
DIMSTYLE
105
8D2B
330
A
100
AcDbSymbolTableRecord
100
AcDbDimStyleTableRecord
  2
AM_ANSI$SH
 70
     0
  4
mm
 41
0.12
 42
0.05
 43
0.5
 44
0.1
 47
0.1
 48
0.1
 75
     1
 76
     1
 78
     7
 79
     2
 90
     1
140
0.12
141
0.0
146
0.71
147
0.06
173
     1
176
   256
177
   256
178
     2
274
     4
284
     7
340
11
343
8B3C
345
14
346
14
347
14
371
    -1
372
    -1
1001
ACAD_DSTYLE_DIMBREAK
1070
   391
1040
0.125
1001
ACAD_DSTYLE_DIMJAG
1070
   388
1040
1.5
  0
ENDTAB
  0
TABLE
  2
BLOCK_RECORD
  5
1
330
0
100
AcDbSymbolTable
 70
    26
  0
BLOCK_RECORD
  5
1F
102
{ACAD_XDICTIONARY
360
9D7
102
}
330
1
100
AcDbSymbolTableRecord
100
AcDbBlockTableRecord
  2
*Model_Space
340
22
 70
     0
280
     1
281
     0
  0
BLOCK_RECORD
  5
D2
330
1
100
AcDbSymbolTableRecord
100
AcDbBlockTableRecord
  2
*Paper_Space
340
D3
 70
     0
280
     1
281
     0
  0
BLOCK_RECORD
  5
D6
330
1
100
AcDbSymbolTableRecord
100
AcDbBlockTableRecord
  2
*Paper_Space0
340
D7
 70
     0
280
     1
281
     0
  0
BLOCK_RECORD
  5
87B
330
1
100
AcDbSymbolTableRecord
100
AcDbBlockTableRecord
  2
_Open30
340
0
102
{BLKREFS
331
1183
331
1184
331
1191
331
1192
331
119B
331
119C
331
11A9
331
11AA
331
11B5
331
11B6
331
11C1
331
11C2
331
11CF
331
11D0
331
11DB
331
11DC
331
96F1
331
96F2
331
96FA
331
96FB
331
9703
331
9704
331
970C
331
970D
331
973C
331
973D
331
9745
331
9746
331
97A0
331
97A1
331
97CA
331
97CB
331
984F
331
9850
331
985C
331
985D
102
}
 70
     0
280
     1
281
     0
  0
BLOCK_RECORD
  5
1178
330
1
100
AcDbSymbolTableRecord
100
AcDbBlockTableRecord
  2
_Open90
340
0
 70
     0
280
     1
281
     0
  0
BLOCK_RECORD
  5
117E
330
1
100
AcDbSymbolTableRecord
100
AcDbBlockTableRecord
  2
*D3
340
0
 70
     0
280
     1
281
     0
  0
BLOCK_RECORD
  5
118A
330
1
100
AcDbSymbolTableRecord
100
AcDbBlockTableRecord
  2
*D4
340
0
 70
     0
280
     1
281
     0
  0
BLOCK_RECORD
  5
1196
330
1
100
AcDbSymbolTableRecord
100
AcDbBlockTableRecord
  2
*D5
340
0
 70
     0
280
     1
281
     0
  0
BLOCK_RECORD
  5
11A2
330
1
100
AcDbSymbolTableRecord
100
AcDbBlockTableRecord
  2
*D6
340
0
 70
     0
280
     1
281
     0
  0
BLOCK_RECORD
  5
11B0
330
1
100
AcDbSymbolTableRecord
100
AcDbBlockTableRecord
  2
*D7
340
0
 70
     0
280
     1
281
     0
  0
BLOCK_RECORD
  5
11BC
330
1
100
AcDbSymbolTableRecord
100
AcDbBlockTableRecord
  2
*D8
340
0
 70
     0
280
     1
281
     0
  0
BLOCK_RECORD
  5
11C8
330
1
100
AcDbSymbolTableRecord
100
AcDbBlockTableRecord
  2
*D9
340
0
 70
     0
280
     1
281
     0
  0
BLOCK_RECORD
  5
11D6
330
1
100
AcDbSymbolTableRecord
100
AcDbBlockTableRecord
  2
*D10
340
0
 70
     0
280
     1
281
     0
  0
BLOCK_RECORD
  5
11E3
102
{ACAD_XDICTIONARY
360
127C
102
}
330
1
100
AcDbSymbolTableRecord
100
AcDbBlockTableRecord
  2
A$C4DB7395D
340
0
 70
     4
280
     1
281
     0
  0
BLOCK_RECORD
  5
8B3C
330
1
100
AcDbSymbolTableRecord
100
AcDbBlockTableRecord
  2
GENAXEH
340
0
 70
     0
280
     1
281
     0
  0
BLOCK_RECORD
  5
91C2
330
1
100
AcDbSymbolTableRecord
100
AcDbBlockTableRecord
  2
*D13
340
0
 70
     0
280
     1
281
     0
  0
BLOCK_RECORD
  5
91DA
330
1
100
AcDbSymbolTableRecord
100
AcDbBlockTableRecord
  2
*D14
340
0
 70
     0
280
     1
281
     0
  0
BLOCK_RECORD
  5
91F2
330
1
100
AcDbSymbolTableRecord
100
AcDbBlockTableRecord
  2
*D15
340
0
 70
     0
280
     1
281
     0
  0
BLOCK_RECORD
  5
920A
330
1
100
AcDbSymbolTableRecord
100
AcDbBlockTableRecord
  2
*D16
340
0
 70
     0
280
     1
281
     0
  0
BLOCK_RECORD
  5
9226
330
1
100
AcDbSymbolTableRecord
100
AcDbBlockTableRecord
  2
*D17
340
0
 70
     0
280
     1
281
     0
  0
BLOCK_RECORD
  5
923D
330
1
100
AcDbSymbolTableRecord
100
AcDbBlockTableRecord
  2
_DotSmall
340
0
102
{BLKREFS
331
97A9
331
97AA
102
}
 70
     0
280
     1
281
     0
  0
BLOCK_RECORD
  5
92A9
330
1
100
AcDbSymbolTableRecord
100
AcDbBlockTableRecord
  2
*D19
340
0
 70
     0
280
     1
281
     0
  0
BLOCK_RECORD
  5
92C1
330
1
100
AcDbSymbolTableRecord
100
AcDbBlockTableRecord
  2
*D20
340
0
 70
     0
280
     1
281
     0
  0
BLOCK_RECORD
  5
9333
330
1
100
AcDbSymbolTableRecord
100
AcDbBlockTableRecord
  2
*D21
340
0
 70
     0
280
     1
281
     0
  0
BLOCK_RECORD
  5
945D
330
1
100
AcDbSymbolTableRecord
100
AcDbBlockTableRecord
  2
*D22
340
0
 70
     0
280
     1
281
     0
  0
BLOCK_RECORD
  5
97F3
330
1
100
AcDbSymbolTableRecord
100
AcDbBlockTableRecord
  2
*D23
340
0
 70
     0
280
     1
281
     0
  0
BLOCK_RECORD
  5
980F
330
1
100
AcDbSymbolTableRecord
100
AcDbBlockTableRecord
  2
*D24
340
0
 70
     0
280
     1
281
     0
  0
ENDTAB
  0
ENDSEC
  0
SECTION
  2
BLOCKS
  0
BLOCK
  5
20
330
1F
100
AcDbEntity
  8
0
100
AcDbBlockBegin
  2
*Model_Space
 70
     0
 10
0.0
 20
0.0
 30
0.0
  3
*Model_Space
  1

  0
ENDBLK
  5
21
330
1F
100
AcDbEntity
  8
0
100
AcDbBlockEnd
  0
BLOCK
  5
D4
330
D2
100
AcDbEntity
 67
     1
  8
0
100
AcDbBlockBegin
  2
*Paper_Space
 70
     0
 10
0.0
 20
0.0
 30
0.0
  3
*Paper_Space
  1

  0
ENDBLK
  5
D5
330
D2
100
AcDbEntity
 67
     1
  8
0
100
AcDbBlockEnd
  0
BLOCK
  5
D8
330
D6
100
AcDbEntity
 67
     1
  8
0
100
AcDbBlockBegin
  2
*Paper_Space0
 70
     0
 10
0.0
 20
0.0
 30
0.0
  3
*Paper_Space0
  1

  0
ENDBLK
  5
D9
330
D6
100
AcDbEntity
 67
     1
  8
0
100
AcDbBlockEnd
  0
BLOCK
  5
87C
330
87B
100
AcDbEntity
  8
0
100
AcDbBlockBegin
  2
_Open30
 70
     0
 10
0.0
 20
0.0
 30
0.0
  3
_Open30
  1

  0
LINE
  5
87D
330
87B
100
AcDbEntity
  8
0
  6
ByBlock
 62
     0
370
    -2
100
AcDbLine
 10
-1.0
 20
0.26794919
 30
0.0
 11
0.0
 21
0.0
 31
0.0
  0
LINE
  5
87E
330
87B
100
AcDbEntity
  8
0
  6
ByBlock
 62
     0
370
    -2
100
AcDbLine
 10
0.0
 20
0.0
 30
0.0
 11
-1.0
 21
-0.26794919
 31
0.0
  0
LINE
  5
87F
330
87B
100
AcDbEntity
  8
0
  6
ByBlock
 62
     0
370
    -2
100
AcDbLine
 10
0.0
 20
0.0
 30
0.0
 11
-1.0
 21
0.0
 31
0.0
  0
ENDBLK
  5
880
330
87B
100
AcDbEntity
  8
0
100
AcDbBlockEnd
  0
BLOCK
  5
1179
330
1178
100
AcDbEntity
  8
0
100
AcDbBlockBegin
  2
_Open90
 70
     0
 10
0.0
 20
0.0
 30
0.0
  3
_Open90
  1

  0
LINE
  5
117A
330
1178
100
AcDbEntity
  8
0
  6
ByBlock
 62
     0
370
    -2
100
AcDbLine
 10
-0.5
 20
0.5
 30
0.0
 11
0.0
 21
0.0
 31
0.0
  0
LINE
  5
117B
330
1178
100
AcDbEntity
  8
0
  6
ByBlock
 62
     0
370
    -2
100
AcDbLine
 10
0.0
 20
0.0
 30
0.0
 11
-0.5
 21
-0.5
 31
0.0
  0
LINE
  5
117C
330
1178
100
AcDbEntity
  8
0
  6
ByBlock
 62
     0
370
    -2
100
AcDbLine
 10
0.0
 20
0.0
 30
0.0
 11
-1.0
 21
0.0
 31
0.0
  0
ENDBLK
  5
117D
330
1178
100
AcDbEntity
  8
0
100
AcDbBlockEnd
  0
BLOCK
  5
117F
330
117E
100
AcDbEntity
  8
0
100
AcDbBlockBegin
  2
*D3
 70
     1
 10
0.0
 20
0.0
 30
0.0
  3
*D3
  1

  0
LINE
  5
1180
330
117E
100
AcDbEntity
  8
dim
370
    -2
100
AcDbLine
 10
1270.17087219829
 20
464.4741343012923
 30
0.0
 11
1276.757234129869
 21
464.4741343012923
 31
0.0
  0
LINE
  5
1181
330
117E
100
AcDbEntity
  8
dim
370
    -2
100
AcDbLine
 10
1270.17087219829
 20
483.6741343012924
 30
0.0
 11
1276.757234129869
 21
483.6741343012924
 31
0.0
  0
LINE
  5
1182
330
117E
100
AcDbEntity
  8
dim
 62
     0
370
    -2
100
AcDbLine
 10
1276.307234129869
 20
465.7741343012924
 30
0.0
 11
1276.307234129869
 21
482.3741343012924
 31
0.0
  0
INSERT
  5
1183
330
117E
100
AcDbEntity
  8
dim
 62
     0
370
    -2
100
AcDbBlockReference
  2
_Open30
 10
1276.307234129869
 20
464.4741343012923
 30
0.0
 41
1.3
 42
1.3
 43
1.3
 50
270.0
  0
INSERT
  5
1184
330
117E
100
AcDbEntity
  8
dim
 62
     0
370
    -2
100
AcDbBlockReference
  2
_Open30
 10
1276.307234129869
 20
483.6741343012924
 30
0.0
 41
1.3
 42
1.3
 43
1.3
 50
90.0
  0
MTEXT
  5
1185
330
117E
100
AcDbEntity
  8
dim
 62
     3
100
AcDbMText
 10
1275.098900796536
 20
474.0741343012926
 30
0.0
 40
1.3
 41
0.0
 46
0.0
 71
     5
 72
     1
  1
19,2
 11
0.0000000000000001
 21
1.0
 31
0.0
 73
     1
 44
1.0
  0
POINT
  5
1186
330
117E
100
AcDbEntity
  8
Defpoints
 62
     0
100
AcDbPoint
 10
1269.72087219829
 20
464.4741343012923
 30
0.0
  0
POINT
  5
1187
330
117E
100
AcDbEntity
  8
Defpoints
 62
     0
100
AcDbPoint
 10
1269.72087219829
 20
483.6741343012924
 30
0.0
  0
POINT
  5
1188
330
117E
100
AcDbEntity
  8
Defpoints
 62
     0
100
AcDbPoint
 10
1276.307234129869
 20
483.6741343012924
 30
0.0
  0
ENDBLK
  5
1189
330
117E
100
AcDbEntity
  8
0
100
AcDbBlockEnd
  0
BLOCK
  5
118B
330
118A
100
AcDbEntity
  8
0
100
AcDbBlockBegin
  2
*D4
 70
     1
 10
0.0
 20
0.0
 30
0.0
  3
*D4
  1

  0
LINE
  5
118C
330
118A
100
AcDbEntity
  8
dim
 62
     0
370
    -2
100
AcDbLine
 10
1270.784187201349
 20
487.3063486850151
 30
0.0
 11
1266.217520534682
 21
487.3063486850151
 31
0.0
  0
LINE
  5
118D
330
118A
100
AcDbEntity
  8
dim
 62
     0
370
    -2
100
AcDbLine
 10
1266.217520534682
 20
487.3063486850151
 30
0.0
 11
1259.61562292068
 21
478.306760436155
 31
0.0
  0
LINE
  5
118E
330
118A
100
AcDbEntity
  8
dim
 62
     0
370
    -2
100
AcDbLine
 10
1253.227511399726
 20
469.5986015494646
 30
0.0
 11
1252.458572049981
 21
468.5503972390296
 31
0.0
  0
MTEXT
  5
118F
330
118A
100
AcDbEntity
  8
dim
 62
     3
100
AcDbMText
 10
1268.725853868015
 20
488.5146820183484
 30
0.0
 40
1.3
 41
0.0
 46
0.0
 71
     5
 72
     1
  1
∅8,2
 73
     1
 44
1.0
  0
LINE
  5
1190
330
118A
100
AcDbEntity
  8
dim
 62
     0
370
    -2
100
AcDbLine
 10
1253.99645074947
 20
470.6468058598995
 30
0.0
 11
1258.846683570936
 21
477.2585561257201
 31
0.0
  0
INSERT
  5
1191
330
118A
100
AcDbEntity
  8
dim
 62
     0
370
    -2
100
AcDbBlockReference
  2
_Open30
 10
1253.99645074947
 20
470.6468058598995
 30
0.0
 41
1.3
 42
1.3
 43
1.3
 50
53.73705699815668
  0
INSERT
  5
1192
330
118A
100
AcDbEntity
  8
dim
 62
     0
370
    -2
100
AcDbBlockReference
  2
_Open30
 10
1258.846683570936
 20
477.2585561257201
 30
0.0
 41
1.3
 42
1.3
 43
1.3
 50
233.7370569981566
  0
POINT
  5
1193
330
118A
100
AcDbEntity
  8
Defpoints
 62
     0
100
AcDbPoint
 10
1258.846683570936
 20
477.2585561257201
 30
0.0
  0
POINT
  5
1194
330
118A
100
AcDbEntity
  8
Defpoints
 62
     0
100
AcDbPoint
 10
1253.99645074947
 20
470.6468058598995
 30
0.0
  0
ENDBLK
  5
1195
330
118A
100
AcDbEntity
  8
0
100
AcDbBlockEnd
  0
BLOCK
  5
1197
330
1196
100
AcDbEntity
  8
0
100
AcDbBlockBegin
  2
*D5
 70
     1
 10
0.0
 20
0.0
 30
0.0
  3
*D5
  1

  0
LINE
  5
1198
330
1196
100
AcDbEntity
  8
dim
370
    -2
100
AcDbLine
 10
1311.219809518235
 20
477.0732337661798
 30
0.0
 11
1305.9832142087
 21
477.0732337661798
 31
0.0
  0
LINE
  5
1199
330
1196
100
AcDbEntity
  8
dim
370
    -2
100
AcDbLine
 10
1311.219809518236
 20
471.0732337661797
 30
0.0
 11
1305.9832142087
 21
471.0732337661797
 31
0.0
  0
LINE
  5
119A
330
1196
100
AcDbEntity
  8
dim
 62
     0
370
    -2
100
AcDbLine
 10
1306.4332142087
 20
475.7732337661798
 30
0.0
 11
1306.4332142087
 21
472.3732337661797
 31
0.0
  0
INSERT
  5
119B
330
1196
100
AcDbEntity
  8
dim
 62
     0
370
    -2
100
AcDbBlockReference
  2
_Open30
 10
1306.4332142087
 20
477.0732337661798
 30
0.0
 41
1.3
 42
1.3
 43
1.3
 50
90.0
  0
INSERT
  5
119C
330
1196
100
AcDbEntity
  8
dim
 62
     0
370
    -2
100
AcDbBlockReference
  2
_Open30
 10
1306.4332142087
 20
471.0732337661797
 30
0.0
 41
1.3
 42
1.3
 43
1.3
 50
270.0
  0
MTEXT
  5
119D
330
1196
100
AcDbEntity
  8
dim
 62
     3
100
AcDbMText
 10
1305.3332142087
 20
474.07323376618
 30
0.0
 40
1.3
 41
0.0
 46
0.0
 71
     5
 72
     1
  1
6
 11
0.0000000000000001
 21
1.0
 31
0.0
 73
     1
 44
1.0
  0
POINT
  5
119E
330
1196
100
AcDbEntity
  8
Defpoints
 62
     0
100
AcDbPoint
 10
1311.669809518235
 20
477.0732337661798
 30
0.0
  0
POINT
  5
119F
330
1196
100
AcDbEntity
  8
Defpoints
 62
     0
100
AcDbPoint
 10
1311.669809518235
 20
471.0732337661797
 30
0.0
  0
POINT
  5
11A0
330
1196
100
AcDbEntity
  8
Defpoints
 62
     0
100
AcDbPoint
 10
1306.4332142087
 20
471.0732337661797
 30
0.0
  0
ENDBLK
  5
11A1
330
1196
100
AcDbEntity
  8
0
100
AcDbBlockEnd
  0
BLOCK
  5
11A3
330
11A2
100
AcDbEntity
  8
0
100
AcDbBlockBegin
  2
*D6
 70
     1
 10
0.0
 20
0.0
 30
0.0
  3
*D6
  1

  0
LINE
  5
11A4
330
11A2
100
AcDbEntity
  8
dim
370
    -2
100
AcDbLine
 10
1246.23569576056
 20
470.6232337661798
 30
0.0
 11
1246.23569576056
 21
461.3824606311954
 31
0.0
  0
LINE
  5
11A5
330
11A2
100
AcDbEntity
  8
dim
370
    -2
100
AcDbLine
 10
1248.23569576056
 20
465.0241343012925
 30
0.0
 11
1248.23569576056
 21
461.3824606311954
 31
0.0
  0
LINE
  5
11A6
330
11A2
100
AcDbEntity
  8
dim
 62
     0
370
    -2
100
AcDbLine
 10
1244.93569576056
 20
461.8324606311954
 30
0.0
 11
1243.63569576056
 21
461.8324606311954
 31
0.0
  0
LINE
  5
11A7
330
11A2
100
AcDbEntity
  8
dim
 62
     0
370
    -2
100
AcDbLine
 10
1249.53569576056
 20
461.8324606311954
 30
0.0
 11
1250.835695760559
 21
461.8324606311954
 31
0.0
  0
LINE
  5
11A8
330
11A2
100
AcDbEntity
  8
dim
 62
     0
370
    -2
100
AcDbLine
 10
1246.23569576056
 20
461.8324606311954
 30
0.0
 11
1248.23569576056
 21
461.8324606311954
 31
0.0
  0
INSERT
  5
11A9
330
11A2
100
AcDbEntity
  8
dim
 62
     0
370
    -2
100
AcDbBlockReference
  2
_Open30
 10
1246.23569576056
 20
461.8324606311954
 30
0.0
 41
1.3
 42
1.3
 43
1.3
  0
INSERT
  5
11AA
330
11A2
100
AcDbEntity
  8
dim
 62
     0
370
    -2
100
AcDbBlockReference
  2
_Open30
 10
1248.23569576056
 20
461.8324606311954
 30
0.0
 41
1.3
 42
1.3
 43
1.3
 50
180.0
  0
MTEXT
  5
11AB
330
11A2
100
AcDbEntity
  8
dim
 62
     3
100
AcDbMText
 10
1247.23569576056
 20
462.9324606311954
 30
0.0
 40
1.3
 41
0.0
 46
0.0
 71
     5
 72
     1
  1
2
 73
     1
 44
1.0
  0
POINT
  5
11AC
330
11A2
100
AcDbEntity
  8
Defpoints
 62
     0
100
AcDbPoint
 10
1246.23569576056
 20
471.0732337661798
 30
0.0
  0
POINT
  5
11AD
330
11A2
100
AcDbEntity
  8
Defpoints
 62
     0
100
AcDbPoint
 10
1248.23569576056
 20
465.4741343012925
 30
0.0
  0
POINT
  5
11AE
330
11A2
100
AcDbEntity
  8
Defpoints
 62
     0
100
AcDbPoint
 10
1248.23569576056
 20
461.8324606311954
 30
0.0
  0
ENDBLK
  5
11AF
330
11A2
100
AcDbEntity
  8
0
100
AcDbBlockEnd
  0
BLOCK
  5
11B1
330
11B0
100
AcDbEntity
  8
0
100
AcDbBlockBegin
  2
*D7
 70
     1
 10
0.0
 20
0.0
 30
0.0
  3
*D7
  1

  0
LINE
  5
11B2
330
11B0
100
AcDbEntity
  8
dim
370
    -2
100
AcDbLine
 10
1248.23569576056
 20
465.0241343012925
 30
0.0
 11
1248.23569576056
 21
461.3824606311954
 31
0.0
  0
LINE
  5
11B3
330
11B0
100
AcDbEntity
  8
dim
370
    -2
100
AcDbLine
 10
1256.442630103143
 20
467.4277528840781
 30
0.0
 11
1256.442630103143
 21
461.3824606311954
 31
0.0
  0
LINE
  5
11B4
330
11B0
100
AcDbEntity
  8
dim
 62
     0
370
    -2
100
AcDbLine
 10
1249.53569576056
 20
461.8324606311954
 30
0.0
 11
1255.142630103143
 21
461.8324606311954
 31
0.0
  0
INSERT
  5
11B5
330
11B0
100
AcDbEntity
  8
dim
 62
     0
370
    -2
100
AcDbBlockReference
  2
_Open30
 10
1248.23569576056
 20
461.8324606311954
 30
0.0
 41
1.3
 42
1.3
 43
1.3
 50
180.0
  0
INSERT
  5
11B6
330
11B0
100
AcDbEntity
  8
dim
 62
     0
370
    -2
100
AcDbBlockReference
  2
_Open30
 10
1256.442630103143
 20
461.8324606311954
 30
0.0
 41
1.3
 42
1.3
 43
1.3
  0
MTEXT
  5
11B7
330
11B0
100
AcDbEntity
  8
dim
 62
     3
100
AcDbMText
 10
1252.339162931852
 20
462.9324606311954
 30
0.0
 40
1.3
 41
0.0
 46
0.0
 71
     5
 72
     1
  1
8.2
 73
     1
 44
1.0
  0
POINT
  5
11B8
330
11B0
100
AcDbEntity
  8
Defpoints
 62
     0
100
AcDbPoint
 10
1248.23569576056
 20
465.4741343012925
 30
0.0
  0
POINT
  5
11B9
330
11B0
100
AcDbEntity
  8
Defpoints
 62
     0
100
AcDbPoint
 10
1256.442630103143
 20
467.8777528840782
 30
0.0
  0
POINT
  5
11BA
330
11B0
100
AcDbEntity
  8
Defpoints
 62
     0
100
AcDbPoint
 10
1256.442630103143
 20
461.8324606311954
 30
0.0
  0
ENDBLK
  5
11BB
330
11B0
100
AcDbEntity
  8
0
100
AcDbBlockEnd
  0
BLOCK
  5
11BD
330
11BC
100
AcDbEntity
  8
0
100
AcDbBlockBegin
  2
*D8
 70
     1
 10
0.0
 20
0.0
 30
0.0
  3
*D8
  1

  0
LINE
  5
11BE
330
11BC
100
AcDbEntity
  8
dim
370
    -2
100
AcDbLine
 10
1248.23569576056
 20
465.0241343012925
 30
0.0
 11
1248.23569576056
 21
458.4264137113017
 31
0.0
  0
LINE
  5
11BF
330
11BC
100
AcDbEntity
  8
dim
370
    -2
100
AcDbLine
 10
1270.72087219829
 20
465.0241343012924
 30
0.0
 11
1270.72087219829
 21
458.4264137113017
 31
0.0
  0
LINE
  5
11C0
330
11BC
100
AcDbEntity
  8
dim
 62
     0
370
    -2
100
AcDbLine
 10
1249.53569576056
 20
458.8764137113016
 30
0.0
 11
1269.42087219829
 21
458.8764137113016
 31
0.0
  0
INSERT
  5
11C1
330
11BC
100
AcDbEntity
  8
dim
 62
     0
370
    -2
100
AcDbBlockReference
  2
_Open30
 10
1248.23569576056
 20
458.8764137113016
 30
0.0
 41
1.3
 42
1.3
 43
1.3
 50
180.0
  0
INSERT
  5
11C2
330
11BC
100
AcDbEntity
  8
dim
 62
     0
370
    -2
100
AcDbBlockReference
  2
_Open30
 10
1270.72087219829
 20
458.8764137113016
 30
0.0
 41
1.3
 42
1.3
 43
1.3
  0
MTEXT
  5
11C3
330
11BC
100
AcDbEntity
  8
dim
 62
     3
100
AcDbMText
 10
1259.478283979425
 20
459.9764137113017
 30
0.0
 40
1.3
 41
0.0
 46
0.0
 71
     5
 72
     1
  1
22.5
 73
     1
 44
1.0
  0
POINT
  5
11C4
330
11BC
100
AcDbEntity
  8
Defpoints
 62
     0
100
AcDbPoint
 10
1248.23569576056
 20
465.4741343012925
 30
0.0
  0
POINT
  5
11C5
330
11BC
100
AcDbEntity
  8
Defpoints
 62
     0
100
AcDbPoint
 10
1270.72087219829
 20
465.4741343012924
 30
0.0
  0
POINT
  5
11C6
330
11BC
100
AcDbEntity
  8
Defpoints
 62
     0
100
AcDbPoint
 10
1270.72087219829
 20
458.8764137113016
 30
0.0
  0
ENDBLK
  5
11C7
330
11BC
100
AcDbEntity
  8
0
100
AcDbBlockEnd
  0
BLOCK
  5
11C9
330
11C8
100
AcDbEntity
  8
0
100
AcDbBlockBegin
  2
*D9
 70
     1
 10
0.0
 20
0.0
 30
0.0
  3
*D9
  1

  0
LINE
  5
11CA
330
11C8
100
AcDbEntity
  8
dim
370
    -2
100
AcDbLine
 10
1318.669809518236
 20
464.022333231067
 30
0.0
 11
1318.669809518236
 21
458.4264137113017
 31
0.0
  0
LINE
  5
11CB
330
11C8
100
AcDbEntity
  8
dim
370
    -2
100
AcDbLine
 10
1320.669809518236
 20
464.022333231067
 30
0.0
 11
1320.669809518236
 21
458.4264137113017
 31
0.0
  0
LINE
  5
11CC
330
11C8
100
AcDbEntity
  8
dim
 62
     0
370
    -2
100
AcDbLine
 10
1317.369809518236
 20
458.8764137113016
 30
0.0
 11
1316.069809518236
 21
458.8764137113016
 31
0.0
  0
LINE
  5
11CD
330
11C8
100
AcDbEntity
  8
dim
 62
     0
370
    -2
100
AcDbLine
 10
1321.969809518235
 20
458.8764137113016
 30
0.0
 11
1323.269809518236
 21
458.8764137113016
 31
0.0
  0
LINE
  5
11CE
330
11C8
100
AcDbEntity
  8
dim
 62
     0
370
    -2
100
AcDbLine
 10
1318.669809518236
 20
458.8764137113016
 30
0.0
 11
1320.669809518236
 21
458.8764137113016
 31
0.0
  0
INSERT
  5
11CF
330
11C8
100
AcDbEntity
  8
dim
 62
     0
370
    -2
100
AcDbBlockReference
  2
_Open30
 10
1318.669809518236
 20
458.8764137113016
 30
0.0
 41
1.3
 42
1.3
 43
1.3
  0
INSERT
  5
11D0
330
11C8
100
AcDbEntity
  8
dim
 62
     0
370
    -2
100
AcDbBlockReference
  2
_Open30
 10
1320.669809518236
 20
458.8764137113016
 30
0.0
 41
1.3
 42
1.3
 43
1.3
 50
180.0
  0
MTEXT
  5
11D1
330
11C8
100
AcDbEntity
  8
dim
 62
     3
100
AcDbMText
 10
1319.669809518235
 20
459.9764137113017
 30
0.0
 40
1.3
 41
0.0
 46
0.0
 71
     5
 72
     1
  1
2
 73
     1
 44
1.0
  0
POINT
  5
11D2
330
11C8
100
AcDbEntity
  8
Defpoints
 62
     0
100
AcDbPoint
 10
1318.669809518236
 20
464.472333231067
 30
0.0
  0
POINT
  5
11D3
330
11C8
100
AcDbEntity
  8
Defpoints
 62
     0
100
AcDbPoint
 10
1320.669809518236
 20
464.472333231067
 30
0.0
  0
POINT
  5
11D4
330
11C8
100
AcDbEntity
  8
Defpoints
 62
     0
100
AcDbPoint
 10
1320.669809518236
 20
458.8764137113016
 30
0.0
  0
ENDBLK
  5
11D5
330
11C8
100
AcDbEntity
  8
0
100
AcDbBlockEnd
  0
BLOCK
  5
11D7
330
11D6
100
AcDbEntity
  8
0
100
AcDbBlockBegin
  2
*D10
 70
     1
 10
0.0
 20
0.0
 30
0.0
  3
*D10
  1

  0
LINE
  5
11D8
330
11D6
100
AcDbEntity
  8
dim
370
    -2
100
AcDbLine
 10
1310.669809518235
 20
471.6232337661796
 30
0.0
 11
1310.669809518235
 21
458.4264137113017
 31
0.0
  0
LINE
  5
11D9
330
11D6
100
AcDbEntity
  8
dim
370
    -2
100
AcDbLine
 10
1318.669809518236
 20
464.022333231067
 30
0.0
 11
1318.669809518236
 21
458.4264137113017
 31
0.0
  0
LINE
  5
11DA
330
11D6
100
AcDbEntity
  8
dim
 62
     0
370
    -2
100
AcDbLine
 10
1311.969809518235
 20
458.8764137113017
 30
0.0
 11
1317.369809518236
 21
458.8764137113017
 31
0.0
  0
INSERT
  5
11DB
330
11D6
100
AcDbEntity
  8
dim
 62
     0
370
    -2
100
AcDbBlockReference
  2
_Open30
 10
1310.669809518235
 20
458.8764137113017
 30
0.0
 41
1.3
 42
1.3
 43
1.3
 50
180.0
  0
INSERT
  5
11DC
330
11D6
100
AcDbEntity
  8
dim
 62
     0
370
    -2
100
AcDbBlockReference
  2
_Open30
 10
1318.669809518236
 20
458.8764137113017
 30
0.0
 41
1.3
 42
1.3
 43
1.3
  0
MTEXT
  5
11DD
330
11D6
100
AcDbEntity
  8
dim
 62
     3
100
AcDbMText
 10
1314.669809518235
 20
459.9764137113017
 30
0.0
 40
1.3
 41
0.0
 46
0.0
 71
     5
 72
     1
  1
8
 73
     1
 44
1.0
  0
POINT
  5
11DE
330
11D6
100
AcDbEntity
  8
Defpoints
 62
     0
100
AcDbPoint
 10
1310.669809518235
 20
472.0732337661797
 30
0.0
  0
POINT
  5
11DF
330
11D6
100
AcDbEntity
  8
Defpoints
 62
     0
100
AcDbPoint
 10
1318.669809518236
 20
464.472333231067
 30
0.0
  0
POINT
  5
11E0
330
11D6
100
AcDbEntity
  8
Defpoints
 62
     0
100
AcDbPoint
 10
1318.669809518236
 20
458.8764137113017
 30
0.0
  0
ENDBLK
  5
11E1
330
11D6
100
AcDbEntity
  8
0
100
AcDbBlockEnd
  0
BLOCK
  5
127E
330
11E3
100
AcDbEntity
  8
0
100
AcDbBlockBegin
  2
A$C4DB7395D
 70
     0
 10
0.0
 20
0.0
 30
0.0
  3
A$C4DB7395D
  1

  0
LWPOLYLINE
  5
11E4
330
11E3
100
AcDbEntity
  8
frame
100
AcDbPolyline
 90
        4
 70
     1
 43
0.0
 10
0.000000147753326
 20
0.0000000684494239
 10
139.8600001477534
 20
0.0000000684494239
 10
139.8600001477534
 20
94.90500006844934
 10
0.000000147753326
 20
94.90500006844934
  0
TEXT
  5
11E5
330
11E3
100
AcDbEntity
  8
0
100
AcDbText
 10
118.4319921448718
 20
6.745688365742296
 30
0.0
 40
1.498499999999997
  1
\M+50088D面番號
  7
CN
100
AcDbText
  0
TEXT
  5
11E6
330
11E3
100
AcDbEntity
  8
0
100
AcDbText
 10
70.56945851206433
 20
19.47681026368735
 30
0.0
 40
1.498499999999997
  1
寸  法
  7
CN
100
AcDbText
  0
TEXT
  5
11E7
330
11E3
100
AcDbEntity
  8
0
100
AcDbText
 10
70.73875763579621
 20
22.14350143346672
 30
0.0
 40
0.9989999999999987
  1
JISB 0405(中級)
  7
CN
100
AcDbText
  0
TEXT
  5
11E8
330
11E3
100
AcDbEntity
  8
0
100
AcDbText
 10
118.4319921448718
 20
21.73068836574242
 30
0.0
 40
1.498499999999997
  1
\M+50099C   種
  7
CN
100
AcDbText
  0
TEXT
  5
11E9
330
11E3
100
AcDbEntity
  8
0
100
AcDbText
 10
106.8875860144444
 20
16.7356883657423
 30
0.0
 40
1.498499999999997
  1
尺度
  7
CN
100
AcDbText
  0
TEXT
  5
11EA
330
11E3
100
AcDbEntity
  8
0
100
AcDbText
 10
106.8875860144444
 20
21.73068836574231
 30
0.0
 40
1.498499999999997
  1
材質
  7
CN
100
AcDbText
  0
TEXT
  5
11EB
330
11E3
100
AcDbEntity
  8
0
100
AcDbText
 10
95.13240436483966
 20
11.74068836574241
 30
0.0
 40
1.498499999999997
  1
日付
  7
CN
100
AcDbText
  0
TEXT
  5
11EC
330
11E3
100
AcDbEntity
  8
0
100
AcDbText
 10
95.13240436483966
 20
16.7356883657423
 30
0.0
 40
1.498499999999997
  1
日付
  7
CN
100
AcDbText
  0
TEXT
  5
11ED
330
11E3
100
AcDbEntity
  8
0
100
AcDbText
 10
95.13240436483966
 20
21.73068836574231
 30
0.0
 40
1.498499999999997
  1
日付
  7
CN
100
AcDbText
  0
TEXT
  5
11EE
330
11E3
100
AcDbEntity
  8
0
100
AcDbText
 10
83.74155052909827
 20
21.73068836574242
 30
0.0
 40
1.498499999999997
  1
承認
  7
CN
100
AcDbText
  0
TEXT
  5
11EF
330
11E3
100
AcDbEntity
  8
0
100
AcDbText
 10
83.74155052909827
 20
16.7356883657423
 30
0.0
 40
1.498499999999997
  1
\M+50099z\M+50088D
  7
CN
100
AcDbText
  0
TEXT
  5
11F0
330
11E3
100
AcDbEntity
  8
0
100
AcDbText
 10
59.35572662903632
 20
1.750688365742178
 30
0.0
 40
1.498499999999997
  1
\M+50093\M+50094
  7
CN
100
AcDbText
  0
LINE
  5
11F1
330
11E3
100
AcDbEntity
  8
0
 48
2.0
100
AcDbLine
 10
43.84221741422197
 20
8.467590036566264
 30
0.0
 11
45.16051921244025
 21
6.184224342342702
 31
0.0
  0
LINE
  5
11F2
330
11E3
100
AcDbEntity
  8
0
 48
2.0
100
AcDbLine
 10
43.84221741422197
 20
8.467590036566264
 30
0.0
 11
42.52391561600347
 21
6.184224342342702
 31
0.0
  0
LINE
  5
11F3
330
11E3
100
AcDbEntity
  8
0
 48
2.0
100
AcDbLine
 10
42.52391561600347
 20
6.184224342342702
 30
0.0
 11
45.16051921244025
 21
6.184224342342702
 31
0.0
  0
TEXT
  5
11F4
330
11E3
100
AcDbEntity
  8
0
100
AcDbText
 10
88.85108004659764
 20
11.74068836574241
 30
0.0
 40
1.498499999999997
  1
秦 瑶
  7
CN
100
AcDbText
  0
TEXT
  5
11F5
330
11E3
100
AcDbEntity
  8
0
100
AcDbText
 10
83.74155052909827
 20
11.74068836574241
 30
0.0
 40
1.498499999999997
  1
製\M+50088D
  7
CN
100
AcDbText
  0
TEXT
  5
11F6
330
11E3
100
AcDbEntity
  8
0
100
AcDbText
 10
100.7056654998068
 20
11.74068836574241
 30
0.0
 40
1.498499999999997
  1
06.07.22
 41
0.7
  7
TW
100
AcDbText
  0
TEXT
  5
11F7
330
11E3
100
AcDbEntity
  8
0
100
AcDbText
 10
112.9848523310004
 20
16.7356883657423
 30
0.0
 40
1.498499999999997
  1
2:1
  7
CN
100
AcDbText
  0
TEXT
  5
11F8
330
11E3
100
AcDbEntity
  8
0
100
AcDbText
 10
83.764742369239
 20
3.819631680173813
 30
0.0
 40
2.757239999999997
  1
日 \M+50099C 株 式 \M+50095\M+5FE20社
  7
CN
100
AcDbText
  0
TEXT
  5
11F9
330
11E3
100
AcDbEntity
  8
0
100
AcDbText
 10
118.4319921448718
 20
16.7356883657423
 30
0.0
 40
1.498499999999997
  1
品   名
  7
CN
100
AcDbText
  0
TEXT
  5
11FA
330
11E3
100
AcDbEntity
  8
0
100
AcDbText
 10
71.70455921598386
 20
1.22964903319081
 30
0.0
 40
0.899099999999999
  1
1000-2000
  7
CN
100
AcDbText
  0
TEXT
  5
11FB
330
11E3
100
AcDbEntity
  8
0
100
AcDbText
 10
72.36529445310657
 20
4.270524675880949
 30
0.0
 40
0.899099999999999
  1
400-1000
  7
CN
100
AcDbText
  0
TEXT
  5
11FC
330
11E3
100
AcDbEntity
  8
0
100
AcDbText
 10
73.01552944034802
 20
7.392399675880994
 30
0.0
 40
0.899099999999999
  1
120-400
  7
CN
100
AcDbText
  0
TEXT
  5
11FD
330
11E3
100
AcDbEntity
  8
0
100
AcDbText
 10
73.66576389055762
 20
10.51427467588081
 30
0.0
 40
0.899099999999999
  1
30-120
  7
CN
100
AcDbText
  0
TEXT
  5
11FE
330
11E3
100
AcDbEntity
  8
0
100
AcDbText
 10
74.97551004308275
 20
13.65007635886394
 30
0.0
 40
0.899099999999999
  1
6-30
  7
CN
100
AcDbText
  0
TEXT
  5
11FF
330
11E3
100
AcDbEntity
  8
0
100
AcDbText
 10
74.32080235998341
 20
16.7580246758809
 30
0.0
 40
0.899099999999999
  1
0.5-6
  7
CN
100
AcDbText
  0
TEXT
  5
1200
330
11E3
100
AcDbEntity
  8
0
100
AcDbText
 10
79.17905332939676
 20
1.148649675880903
 30
0.0
 40
0.9989999999999987
  1
%%P1.2
  7
CN
100
AcDbText
  0
TEXT
  5
1201
330
11E3
100
AcDbEntity
  8
0
100
AcDbText
 10
79.17905332939676
 20
4.270524675880949
 30
0.0
 40
0.9989999999999987
  1
%%P0.8
  7
CN
100
AcDbText
  0
TEXT
  5
1202
330
11E3
100
AcDbEntity
  8
0
100
AcDbText
 10
79.17905332939676
 20
7.392399675880994
 30
0.0
 40
0.9989999999999987
  1
%%P0.5
  7
CN
100
AcDbText
  0
TEXT
  5
1203
330
11E3
100
AcDbEntity
  8
0
100
AcDbText
 10
79.17905332939676
 20
10.51427467588093
 30
0.0
 40
0.9989999999999987
  1
%%P0.3
  7
CN
100
AcDbText
  0
TEXT
  5
1204
330
11E3
100
AcDbEntity
  8
0
100
AcDbText
 10
79.17905332939676
 20
13.63614967588108
 30
0.0
 40
0.9989999999999987
  1
%%P0.2
  7
CN
100
AcDbText
  0
TEXT
  5
1205
330
11E3
100
AcDbEntity
  8
0
100
AcDbText
 10
79.17905332939676
 20
16.7580246758809
 30
0.0
 40
0.9989999999999987
  1
%%P0.1
  7
CN
100
AcDbText
  0
TEXT
  5
1206
330
11E3
100
AcDbEntity
  8
0
100
AcDbText
 10
78.34060055749524
 20
19.87989967588083
 30
0.0
 40
0.899099999999999
  1
容許公差
  7
CN
100
AcDbText
  0
TEXT
  5
1207
330
11E3
100
AcDbEntity
  8
0
100
AcDbText
 10
70.73875763579621
 20
23.70079909367388
 30
0.0
 40
0.9989999999999987
  1
一   般   公   差
  7
CN
100
AcDbText
  0
TEXT
  5
1208
330
11E3
100
AcDbEntity
  8
0
100
AcDbText
 10
64.99350154825743
 20
1.750688365742178
 30
0.0
 40
1.498499999999997
  1
日付
  7
CN
100
AcDbText
  0
TEXT
  5
1209
330
11E3
100
AcDbEntity
  8
0
100
AcDbText
 10
48.22651473749601
 20
1.750688365742405
 30
0.0
 40
1.498499999999997
  1
更改内容
  7
CN
100
AcDbText
  0
TEXT
  5
120A
330
11E3
100
AcDbEntity
  8
0
100
AcDbText
 10
43.647320116238
 20
6.451948288430742
 30
0.0
 40
1.248749999999998
  1
1
100
AcDbText
  0
LINE
  5
120B
330
11E3
100
AcDbEntity
  8
frame
100
AcDbLine
 10
83.72999979127735
 20
24.97500006844934
 30
0.0
 11
83.72999979127735
 21
0.0000000684494239
 31
0.0
  0
LINE
  5
120C
330
11E3
100
AcDbEntity
  8
frame
100
AcDbLine
 10
83.72999979127735
 20
21.77212571113961
 30
0.0
 11
69.6681139436148
 21
21.77212571113961
 31
0.0
  0
LINE
  5
120D
330
11E3
100
AcDbEntity
  8
frame
100
AcDbLine
 10
83.72999979127735
 20
18.65025071113956
 30
0.0
 11
69.6681139436148
 21
18.65025071113956
 31
0.0
  0
LINE
  5
120E
330
11E3
100
AcDbEntity
  8
frame
100
AcDbLine
 10
83.72999979127735
 20
15.52837571113963
 30
0.0
 11
69.6681139436148
 21
15.52837571113963
 31
0.0
  0
LINE
  5
120F
330
11E3
100
AcDbEntity
  8
frame
100
AcDbLine
 10
83.72999979127735
 20
9.28462571113954
 30
0.0
 11
69.6681139436148
 21
9.28462571113954
 31
0.0
  0
LINE
  5
1210
330
11E3
100
AcDbEntity
  8
frame
100
AcDbLine
 10
83.72999979127735
 20
12.4065007111397
 30
0.0
 11
69.6681139436148
 21
12.4065007111397
 31
0.0
  0
LINE
  5
1211
330
11E3
100
AcDbEntity
  8
frame
100
AcDbLine
 10
83.72999979127735
 20
6.162750711139608
 30
0.0
 11
69.6681139436148
 21
6.162750711139608
 31
0.0
  0
LINE
  5
1212
330
11E3
100
AcDbEntity
  8
frame
100
AcDbLine
 10
83.72999979127735
 20
3.040875711139676
 30
0.0
 11
69.6681139436148
 21
3.040875711139676
 31
0.0
  0
LINE
  5
1213
330
11E3
100
AcDbEntity
  8
frame
100
AcDbLine
 10
78.33994961021358
 20
0.0000000684494239
 30
0.0
 11
78.33994961021358
 21
21.77212571113961
 31
0.0
  0
LINE
  5
1214
330
11E3
100
AcDbEntity
  8
frame
100
AcDbLine
 10
40.95900014775361
 20
0.0000000684494239
 30
0.0
 11
40.95900014775361
 21
24.97500006844934
 31
0.0
  0
LINE
  5
1215
330
11E3
100
AcDbEntity
  8
0
100
AcDbLine
 10
113.8882231367829
 20
11.79714331788517
 30
0.0
 11
113.8882231367829
 21
13.12876129588352
 31
0.0
  0
LINE
  5
1216
330
11E3
100
AcDbEntity
  8
0
100
AcDbLine
 10
113.5050055653146
 20
12.46295230688434
 30
0.0
 11
116.7905519340952
 21
12.46295230688434
 31
0.0
  0
LINE
  5
1217
330
11E3
100
AcDbEntity
  8
0
100
AcDbLine
 10
113.8882231367829
 20
11.79714331788517
 30
0.0
 11
116.5514590927801
 21
11.13133432888588
 31
0.0
  0
LINE
  5
1218
330
11E3
100
AcDbEntity
  8
0
100
AcDbLine
 10
116.5514590927801
 20
11.13133432888588
 30
0.0
 11
116.5514590927801
 21
13.79457028488269
 31
0.0
  0
LINE
  5
1219
330
11E3
100
AcDbEntity
  8
frame
100
AcDbLine
 10
118.3453497912769
 20
24.97500006844934
 30
0.0
 11
118.3453497912769
 21
0.0000000684494239
 31
0.0
  0
CIRCLE
  5
121A
330
11E3
100
AcDbEntity
  8
0
100
AcDbCircle
 10
109.5604647082875
 20
12.46295230688423
 30
0.0
 40
0.6658089889991961
  0
LINE
  5
121B
330
11E3
100
AcDbEntity
  8
0
100
AcDbLine
 10
107.8963311127449
 20
12.46295230688423
 30
0.0
 11
111.3239953266011
 21
12.46295230688434
 31
0.0
  0
LINE
  5
121C
330
11E3
100
AcDbEntity
  8
0
100
AcDbLine
 10
109.5604647082875
 20
10.80290185300549
 30
0.0
 11
109.5604647082875
 21
14.01754338496192
 31
0.0
  0
CIRCLE
  5
121D
330
11E3
100
AcDbEntity
  8
0
100
AcDbCircle
 10
109.5604647082875
 20
12.46295230688423
 30
0.0
 40
1.331617977998392
  0
LINE
  5
121E
330
11E3
100
AcDbEntity
  8
frame
100
AcDbLine
 10
99.7639497912769
 20
24.97500006844934
 30
0.0
 11
99.76394979127759
 21
9.990000068449433
 31
0.0
  0
LINE
  5
121F
330
11E3
100
AcDbEntity
  8
frame
100
AcDbLine
 10
106.8068997912773
 20
24.97500006844934
 30
0.0
 11
106.8068997912773
 21
9.990000068449433
 31
0.0
  0
LINE
  5
1220
330
11E3
100
AcDbEntity
  8
frame
100
AcDbLine
 10
111.3023997912778
 20
24.97500006844934
 30
0.0
 11
111.3023997912778
 21
14.98500006844944
 31
0.0
  0
LINE
  5
1221
330
11E3
100
AcDbEntity
  8
frame
100
AcDbLine
 10
95.26844979127735
 20
24.97500006844934
 30
0.0
 11
95.26844979127735
 21
9.990000068449433
 31
0.0
  0
LINE
  5
1222
330
11E3
100
AcDbEntity
  8
frame
100
AcDbLine
 10
88.2254997912778
 20
24.97500006844934
 30
0.0
 11
88.2254997912778
 21
9.990000068449433
 31
0.0
  0
LINE
  5
1223
330
11E3
100
AcDbEntity
  8
frame
100
AcDbLine
 10
69.6681139436148
 20
0.0000000684494239
 30
0.0
 11
69.6681139436148
 21
24.97500006844934
 31
0.0
  0
LINE
  5
1224
330
11E3
100
AcDbEntity
  8
frame
100
AcDbLine
 10
64.57679864581814
 20
0.0000000684494239
 30
0.0
 11
64.57679864581814
 21
24.97500006844934
 31
0.0
  0
LINE
  5
1225
330
11E3
100
AcDbEntity
  8
frame
100
AcDbLine
 10
58.27273983355144
 20
0.0000000684494239
 30
0.0
 11
58.27273983355258
 21
24.97500006844934
 31
0.0
  0
LINE
  5
1226
330
11E3
100
AcDbEntity
  8
0
 48
2.0
100
AcDbLine
 10
43.84221741422197
 20
3.381041544661286
 30
0.0
 11
45.16051921244025
 21
1.097675850437724
 31
0.0
  0
LINE
  5
1227
330
11E3
100
AcDbEntity
  8
0
 48
2.0
100
AcDbLine
 10
43.84221741422197
 20
3.381041544661286
 30
0.0
 11
42.52391561600347
 21
1.097675850437724
 31
0.0
  0
LINE
  5
1228
330
11E3
100
AcDbEntity
  8
0
 48
2.0
100
AcDbLine
 10
42.52391561600347
 20
1.097675850437724
 30
0.0
 11
45.16051921244025
 21
1.097675850437724
 31
0.0
  0
LINE
  5
1229
330
11E3
100
AcDbEntity
  8
frame
100
AcDbLine
 10
46.69615663403578
 20
0.0000000684494239
 30
0.0
 11
46.69615663403578
 21
24.97500006844934
 31
0.0
  0
LINE
  5
122A
330
11E3
100
AcDbEntity
  8
frame
100
AcDbLine
 10
69.6681139436148
 20
4.995000068449428
 30
0.0
 11
40.95900014775361
 21
4.995000068449428
 31
0.0
  0
LINE
  5
122B
330
11E3
100
AcDbEntity
  8
frame
100
AcDbLine
 10
69.6681139436148
 20
9.990000068449433
 30
0.0
 11
43.45650014775356
 21
9.990000068449433
 31
0.0
  0
LINE
  5
122C
330
11E3
100
AcDbEntity
  8
frame
100
AcDbLine
 10
69.6681139436148
 20
9.990000068449433
 30
0.0
 11
40.95900014775361
 21
9.990000068449433
 31
0.0
  0
LINE
  5
122D
330
11E3
100
AcDbEntity
  8
frame
100
AcDbLine
 10
69.6681139436148
 20
14.98500006844944
 30
0.0
 11
40.95900014775361
 21
14.98500006844944
 31
0.0
  0
LINE
  5
122E
330
11E3
100
AcDbEntity
  8
frame
100
AcDbLine
 10
69.6681139436148
 20
19.98000006844944
 30
0.0
 11
40.95900014775361
 21
19.98000006844944
 31
0.0
  0
LINE
  5
122F
330
11E3
100
AcDbEntity
  8
frame
100
AcDbLine
 10
139.8600001477534
 20
24.97500006844934
 30
0.0
 11
40.95900014775361
 21
24.97500006844934
 31
0.0
  0
LINE
  5
1230
330
11E3
100
AcDbEntity
  8
frame
100
AcDbLine
 10
139.8600001477534
 20
9.990000068449433
 30
0.0
 11
83.72999979127689
 21
9.990000068449433
 31
0.0
  0
LINE
  5
1231
330
11E3
100
AcDbEntity
  8
frame
100
AcDbLine
 10
139.8600001477534
 20
19.98000006844944
 30
0.0
 11
83.72999979127735
 21
19.98000006844944
 31
0.0
  0
LINE
  5
1232
330
11E3
100
AcDbEntity
  8
frame
100
AcDbLine
 10
83.72999979127735
 20
14.98500006844944
 30
0.0
 11
118.3453497912769
 21
14.98500006844944
 31
0.0
  0
LINE
  5
1233
330
11E3
100
AcDbEntity
  8
0
100
AcDbLine
 10
113.8882231367829
 20
13.12876129588352
 30
0.0
 11
116.5514590927801
 21
13.79457028488269
 31
0.0
  0
MTEXT
  5
1234
330
11E3
100
AcDbEntity
  8
0
100
AcDbMText
 10
126.3439913192937
 20
14.21400332633396
 30
0.0
 40
1.748249999999999
 41
19.35052362733044
 46
0.0
 71
     1
 72
     5
  1
{\fSimSun|b0|i0|c134|p2;止转片}
  7
TW
 73
     1
 44
1.0
  0
MTEXT
  5
1235
330
11E3
100
AcDbEntity
  8
0
100
AcDbMText
 10
124.1953845534149
 20
4.390159173855238
 30
0.0
 40
1.748249999999999
 41
19.35052362733044
 46
0.0
 71
     1
 72
     5
  1
{\fSimSun|b0|i0|c134|p2;C0420220}
  7
TW
 73
     1
 44
1.0
  0
MTEXT
  5
1236
330
11E3
100
AcDbEntity
  8
0
100
AcDbMText
 10
127.795310499557
 20
23.52430508297533
 30
0.0
 40
1.498499999999997
 41
13.07143103632746
 46
0.0
 71
     1
 72
     5
  1
{\fSimSun|b0|i0|c134|p2;卤素灯}
  7
TW
 73
     1
 44
1.0
  0
MTEXT
  5
1237
330
11E3
100
AcDbEntity
  8
dim
 62
     3
100
AcDbMText
 10
4.421032603793719
 20
22.78855393914392
 30
0.0
 40
1.9
 41
26.53792398039423
 46
0.0
 71
     1
 72
     5
  1
{\fSimSun|b0|i0|c134|p2;1.表面处理，镀镍．}
 73
     1
 44
1.0
  0
MTEXT
  5
1238
330
11E3
100
AcDbEntity
  8
dim
 62
     3
100
AcDbMText
 10
0.8181953599057578
 20
25.98217646631866
 30
0.0
 40
1.9
 41
26.53792398039423
 46
0.0
 71
     1
 72
     5
  1
{\fSimSun|b0|i0|c134|p2;备注：}
 73
     1
 44
1.0
  0
MTEXT
  5
1239
330
11E3
100
AcDbEntity
  8
contour
100
AcDbMText
 10
112.8410587208627
 20
23.38116095062031
 30
0.0
 40
1.748249999999999
 41
24.50648733236149
 46
0.0
 71
     1
 72
     5
  1
{\fSimSun|b0|i0|c134|p2;\C0;SPCC}
 73
     1
 44
1.0
  0
LINE
  5
123A
330
11E3
100
AcDbEntity
  8
center
 48
0.1
100
AcDbLine
 10
57.48062440789226
 20
56.63390070968586
 30
0.0
 11
28.70258867415828
 21
56.63454756960653
 31
0.0
  0
LINE
  5
123B
102
{ACAD_REACTORS
330
1270
102
}
330
11E3
100
AcDbEntity
  8
center
 48
0.1
100
AcDbLine
 10
40.86739713035558
 20
62.58793245962983
 30
0.0
 11
40.90952301623701
 21
50.43807624216674
 31
0.0
  0
LINE
  5
123C
330
11E3
100
AcDbEntity
  8
contour
100
AcDbLine
 10
32.70258867365328
 20
65.23445765938106
 30
0.0
 11
32.70258867365328
 21
56.63355712426834
 31
0.0
  0
LINE
  5
123D
330
11E3
100
AcDbEntity
  8
contour
100
AcDbLine
 10
55.18776511138321
 20
65.23445765938112
 30
0.0
 11
55.18776511138367
 21
56.63355712426834
 31
0.0
  0
ARC
  5
123E
330
11E3
100
AcDbEntity
  8
contour
100
AcDbCircle
 10
54.18776511138322
 20
65.23445765938106
 30
0.0
 40
1.0
100
AcDbArc
 50
0.0000000000032569
 51
90.0
  0
LINE
  5
123F
330
11E3
100
AcDbEntity
  8
contour
100
AcDbLine
 10
30.70258867365328
 20
56.63355712426834
 30
0.0
 11
30.70258867365328
 21
59.63355712426835
 31
0.0
  0
LINE
  5
1240
330
11E3
100
AcDbEntity
  8
contour
100
AcDbLine
 10
30.70258867365328
 20
59.63355712426835
 30
0.0
 11
32.70258867365328
 21
59.63355712426835
 31
0.0
  0
LINE
  5
1241
330
11E3
100
AcDbEntity
  8
contour
100
AcDbLine
 10
32.70258867365328
 20
48.03445765938107
 30
0.0
 11
32.70258867365328
 21
56.63355712426834
 31
0.0
  0
LINE
  5
1242
330
11E3
100
AcDbEntity
  8
contour
100
AcDbLine
 10
55.18776511138344
 20
48.03445765938096
 30
0.0
 11
55.18776511138367
 21
56.63355712426834
 31
0.0
  0
LINE
  5
1243
330
11E3
100
AcDbEntity
  8
contour
100
AcDbLine
 10
30.70258867365328
 20
56.63355712426834
 30
0.0
 11
30.70258867365328
 21
53.63355712426835
 31
0.0
  0
LINE
  5
1244
102
{ACAD_REACTORS
330
126D
102
}
330
11E3
100
AcDbEntity
  8
contour
100
AcDbLine
 10
30.70258867365328
 20
53.63355712426835
 30
0.0
 11
32.70258867365328
 21
53.63355712426835
 31
0.0
  0
LINE
  5
1245
330
11E3
100
AcDbEntity
  8
contour
100
AcDbLine
 10
33.70258867365328
 20
47.03445765938107
 30
0.0
 11
54.18776511138344
 21
47.03445765938096
 31
0.0
  0
ARC
  5
1246
102
{ACAD_REACTORS
330
124C
330
1273
102
}
330
11E3
100
AcDbEntity
  8
contour
100
AcDbCircle
 10
54.18776511138344
 20
48.03445765938096
 30
0.0
 40
1.0
100
AcDbArc
 50
270.0
 51
0.0
  0
ARC
  5
1247
102
{ACAD_REACTORS
330
126D
330
1270
102
}
330
11E3
100
AcDbEntity
  8
contour
100
AcDbCircle
 10
33.70258867365328
 20
48.03445765938107
 30
0.0
 40
1.0
100
AcDbArc
 50
180.0
 51
270.0
  0
LINE
  5
1248
102
{ACAD_REACTORS
330
124C
102
}
330
11E3
100
AcDbEntity
  8
contour
100
AcDbLine
 10
33.70258867365328
 20
66.23445765938106
 30
0.0
 11
54.18776511138322
 21
66.23445765938106
 31
0.0
  0
ARC
  5
1249
330
11E3
100
AcDbEntity
  8
contour
100
AcDbCircle
 10
33.70258867365328
 20
65.23445765938106
 30
0.0
 40
1.0
100
AcDbArc
 50
90.0
 51
180.0
  0
DIMENSION
  5
124A
102
{ACAD_XDICTIONARY
360
124B
102
}
102
{ACAD_REACTORS
330
124C
102
}
330
11E3
100
AcDbEntity
  8
dim
100
AcDbDimension
280
     0
  2
*D3
 10
60.77412704296285
 20
66.23445765938106
 30
0.0
 11
59.56579370962959
 21
56.63445765938121
 31
0.0
 12
-1215.533107086906
 22
-417.4396766419114
 32
0.0
 71
     5
 42
19.2000000000001
 73
     0
 74
     0
 75
     0
  3
ISO-25
100
AcDbAlignedDimension
 13
54.18776511138344
 23
47.03445765938096
 33
0.0
 14
54.18776511138344
 24
66.23445765938106
 34
0.0
 50
90.0
100
AcDbRotatedDimension
1001
ACAD
1000
DSTYLE
1002
{
1070
   343
1005
0
1070
   344
1005
0
1002
}
  0
CIRCLE
  5
124D
102
{ACAD_REACTORS
330
1250
102
}
330
11E3
100
AcDbEntity
  8
contour
100
AcDbCircle
 10
40.8884600732963
 20
56.51300435089831
 30
0.0
 40
4.099999999999999
  0
DIMENSION
  5
124E
102
{ACAD_XDICTIONARY
360
124F
102
}
102
{ACAD_REACTORS
330
1250
102
}
330
11E3
100
AcDbEntity
  8
dim
100
AcDbDimension
280
     0
  2
*D4
 10
38.46334366256332
 20
53.20712921798797
 30
0.0
 11
53.19274678110873
 21
69.86667204310356
 31
0.0
 12
-1215.533107086907
 22
-417.4396766419115
 32
0.0
 70
   131
 71
     5
 42
8.200000000000045
 73
     0
 74
     0
 75
     0
  3
ISO-25
100
AcDbDiametricDimension
 15
43.31357648402917
 25
59.81887948380852
 35
0.0
 40
0.0
1001
ACAD
1000
DSTYLE
1002
{
1070
    74
1070
     1
1070
   288
1070
     1
1070
   343
1005
0
1070
   344
1005
0
1002
}
  0
LINE
  5
1251
330
11E3
100
AcDbEntity
  8
center
 48
0.1
100
AcDbLine
 10
107.136702431329
 20
56.63355712426824
 30
0.0
 11
92.93670243132897
 21
56.63355712426818
 31
0.0
  0
LINE
  5
1252
330
11E3
100
AcDbEntity
  8
contour
100
AcDbLine
 10
103.136702431329
 20
66.23445765938106
 30
0.0
 11
105.136702431329
 21
66.23445765938106
 31
0.0
  0
LINE
  5
1253
330
11E3
100
AcDbEntity
  8
contour
100
AcDbLine
 10
105.136702431329
 20
56.63355712426834
 30
0.0
 11
105.136702431329
 21
66.23445765938106
 31
0.0
  0
LINE
  5
1254
330
11E3
100
AcDbEntity
  8
contour
100
AcDbLine
 10
105.136702431329
 20
66.23445765938106
 30
0.0
 11
103.136702431329
 21
66.23445765938106
 31
0.0
  0
LINE
  5
1255
330
11E3
100
AcDbEntity
  8
contour
100
AcDbLine
 10
103.136702431329
 20
66.23445765938106
 30
0.0
 11
103.136702431329
 21
56.63355712426834
 31
0.0
  0
LINE
  5
1256
330
11E3
100
AcDbEntity
  8
contour
100
AcDbLine
 10
103.136702431329
 20
56.63355712426834
 30
0.0
 11
103.136702431329
 21
59.63355712426835
 31
0.0
  0
LINE
  5
1257
330
11E3
100
AcDbEntity
  8
contour
100
AcDbLine
 10
103.136702431329
 20
56.63355712426834
 30
0.0
 11
103.136702431329
 21
58.63355712426835
 31
0.0
  0
LINE
  5
1258
330
11E3
100
AcDbEntity
  8
contour
100
AcDbLine
 10
103.136702431329
 20
56.63355712426834
 30
0.0
 11
103.136702431329
 21
59.63355712426835
 31
0.0
  0
LINE
  5
1259
330
11E3
100
AcDbEntity
  8
contour
100
AcDbLine
 10
103.136702431329
 20
59.63355712426835
 30
0.0
 11
96.13670243132901
 21
59.63355712426841
 31
0.0
  0
LINE
  5
125A
330
11E3
100
AcDbEntity
  8
contour
100
AcDbLine
 10
95.13670243132901
 20
58.63355712426841
 30
0.0
 11
95.13670243132901
 21
56.63355712426834
 31
0.0
  0
ARC
  5
125B
102
{ACAD_REACTORS
330
126A
102
}
330
11E3
100
AcDbEntity
  8
contour
100
AcDbCircle
 10
96.13670243132901
 20
58.63355712426841
 30
0.0
 40
1.0
100
AcDbArc
 50
90.0
 51
180.0
  0
LINE
  5
125C
330
11E3
100
AcDbEntity
  8
contour
100
AcDbLine
 10
103.1367024313292
 20
47.03265658915557
 30
0.0
 11
105.1367024313292
 21
47.03265658915557
 31
0.0
  0
LINE
  5
125D
330
11E3
100
AcDbEntity
  8
contour
100
AcDbLine
 10
105.136702431329
 20
56.63355712426829
 30
0.0
 11
105.1367024313292
 21
47.03265658915557
 31
0.0
  0
LINE
  5
125E
102
{ACAD_REACTORS
330
1276
102
}
330
11E3
100
AcDbEntity
  8
contour
100
AcDbLine
 10
105.1367024313292
 20
47.03265658915557
 30
0.0
 11
103.1367024313292
 21
47.03265658915557
 31
0.0
  0
LINE
  5
125F
330
11E3
100
AcDbEntity
  8
contour
100
AcDbLine
 10
103.1367024313292
 20
47.03265658915557
 30
0.0
 11
103.136702431329
 21
56.63355712426829
 31
0.0
  0
LINE
  5
1260
330
11E3
100
AcDbEntity
  8
contour
100
AcDbLine
 10
103.136702431329
 20
56.63355712426829
 30
0.0
 11
103.136702431329
 21
53.63355712426829
 31
0.0
  0
LINE
  5
1261
330
11E3
100
AcDbEntity
  8
contour
100
AcDbLine
 10
103.136702431329
 20
56.63355712426829
 30
0.0
 11
103.136702431329
 21
54.63355712426829
 31
0.0
  0
LINE
  5
1262
330
11E3
100
AcDbEntity
  8
contour
100
AcDbLine
 10
103.136702431329
 20
56.63355712426829
 30
0.0
 11
103.136702431329
 21
53.63355712426829
 31
0.0
  0
LINE
  5
1263
102
{ACAD_REACTORS
330
126A
102
}
330
11E3
100
AcDbEntity
  8
contour
100
AcDbLine
 10
103.136702431329
 20
53.63355712426829
 30
0.0
 11
96.13670243132901
 21
53.63355712426823
 31
0.0
  0
ARC
  5
1264
330
11E3
100
AcDbEntity
  8
contour
100
AcDbCircle
 10
96.13670243132901
 20
54.63355712426824
 30
0.0
 40
1.0
100
AcDbArc
 50
180.0
 51
270.0
  0
LINE
  5
1265
102
{ACAD_REACTORS
330
127B
102
}
330
11E3
100
AcDbEntity
  8
contour
100
AcDbLine
 10
95.13670243132901
 20
54.63355712426824
 30
0.0
 11
95.13670243132901
 21
56.63355712426818
 31
0.0
  0
LINE
  5
1266
330
11E3
100
AcDbEntity
  8
bowel
 48
0.02
100
AcDbLine
 10
105.136702431329
 20
60.61297970720687
 30
0.0
 11
103.136702431329
 21
60.61297970720687
 31
0.0
  0
LINE
  5
1267
330
11E3
100
AcDbEntity
  8
bowel
 48
0.02
100
AcDbLine
 10
105.136702431329
 20
52.41302899458975
 30
0.0
 11
103.136702431329
 21
52.41302899458975
 31
0.0
  0
DIMENSION
  5
1268
102
{ACAD_XDICTIONARY
360
1269
102
}
102
{ACAD_REACTORS
330
126A
102
}
330
11E3
100
AcDbEntity
  8
dim
100
AcDbDimension
280
     0
  2
*D5
 10
90.90010712179333
 20
53.63355712426829
 30
0.0
 11
89.80010712179341
 21
56.63355712426858
 31
0.0
 12
-1215.533107086906
 22
-417.4396766419114
 32
0.0
 71
     5
 42
6.000000000000113
 73
     0
 74
     0
 75
     0
  3
ISO-25
100
AcDbAlignedDimension
 13
96.13670243132901
 23
59.63355712426841
 33
0.0
 14
96.13670243132924
 24
53.63355712426829
 34
0.0
 50
90.0
100
AcDbRotatedDimension
1001
ACAD
1000
DSTYLE
1002
{
1070
    74
1070
     1
1070
   343
1005
0
1070
   344
1005
0
1002
}
  0
DIMENSION
  5
126B
102
{ACAD_XDICTIONARY
360
126C
102
}
102
{ACAD_REACTORS
330
126D
102
}
330
11E3
100
AcDbEntity
  8
dim
100
AcDbDimension
280
     0
  2
*D6
 10
32.70258867365328
 20
44.392783989284
 30
0.0
 11
31.70258867365328
 21
45.49278398928402
 31
0.0
 12
-1215.533107086906
 22
-417.4396766419114
 32
0.0
 71
     5
 42
2.0
 73
     0
 74
     0
 75
     0
  3
ISO-25
100
AcDbAlignedDimension
 13
30.70258867365328
 23
53.63355712426835
 33
0.0
 14
32.70258867365328
 24
48.03445765938107
 34
0.0
100
AcDbRotatedDimension
1001
ACAD
1000
DSTYLE
1002
{
1070
    74
1070
     1
1070
   343
1005
0
1070
   344
1005
0
1002
}
  0
DIMENSION
  5
126E
102
{ACAD_XDICTIONARY
360
126F
102
}
102
{ACAD_REACTORS
330
1270
102
}
330
11E3
100
AcDbEntity
  8
dim
100
AcDbDimension
280
     0
  2
*D7
 10
40.90952301623701
 20
44.392783989284
 30
0.0
 11
36.80605584494515
 21
45.49278398928402
 31
0.0
 12
-1215.533107086906
 22
-417.4396766419114
 32
0.0
  1
8.2
 71
     5
 42
8.206934342583735
 73
     0
 74
     0
 75
     0
  3
ISO-25
100
AcDbAlignedDimension
 13
32.70258867365328
 23
48.03445765938107
 33
0.0
 14
40.90952301623701
 24
50.43807624216674
 34
0.0
100
AcDbRotatedDimension
1001
ACAD
1000
DSTYLE
1002
{
1070
   279
1070
     1
1070
    74
1070
     1
1070
   343
1005
0
1070
   344
1005
0
1002
}
  0
DIMENSION
  5
1271
102
{ACAD_XDICTIONARY
360
1272
102
}
102
{ACAD_REACTORS
330
1273
102
}
330
11E3
100
AcDbEntity
  8
dim
100
AcDbDimension
280
     0
  2
*D8
 10
55.18776511138344
 20
41.43673706939023
 30
0.0
 11
43.94517689251824
 21
42.53673706939025
 31
0.0
 12
-1215.533107086906
 22
-417.4396766419114
 32
0.0
  1
22.5
 71
     5
 42
22.48517643773016
 73
     0
 74
     0
 75
     0
  3
ISO-25
100
AcDbAlignedDimension
 13
32.70258867365328
 23
48.03445765938107
 33
0.0
 14
55.18776511138344
 24
48.03445765938096
 34
0.0
100
AcDbRotatedDimension
1001
ACAD
1000
DSTYLE
1002
{
1070
    74
1070
     1
1070
   343
1005
0
1070
   344
1005
0
1002
}
  0
DIMENSION
  5
1274
102
{ACAD_XDICTIONARY
360
1275
102
}
102
{ACAD_REACTORS
330
1276
102
}
330
11E3
100
AcDbEntity
  8
dim
100
AcDbDimension
280
     0
  2
*D9
 10
105.1367024313292
 20
41.43673706939023
 30
0.0
 11
104.1367024313292
 21
42.53673706939025
 31
0.0
 12
-1215.533107086906
 22
-417.4396766419114
 32
0.0
 71
     5
 42
2.0
 73
     0
 74
     0
 75
     0
  3
ISO-25
100
AcDbAlignedDimension
 13
103.1367024313292
 23
47.03265658915557
 33
0.0
 14
105.1367024313292
 24
47.03265658915557
 34
0.0
100
AcDbRotatedDimension
1001
ACAD
1000
DSTYLE
1002
{
1070
   279
1070
     1
1070
    74
1070
     1
1070
   343
1005
0
1070
   344
1005
0
1002
}
  0
MTEXT
  5
1277
330
11E3
100
AcDbEntity
  8
dim
100
AcDbMText
 10
4.237048671833463
 20
18.71650577059569
 30
0.0
 40
1.9
 41
67.82658872702427
 46
0.0
 71
     1
 72
     5
  1
{\fSimSun|b0|i0|c134|p2;\C3;2.不可有毛刺，不可生锈}
 73
     1
 44
1.0
  0
MTEXT
  5
1278
330
11E3
100
AcDbEntity
  8
bowel
100
AcDbMText
 10
4.280998055521877
 20
15.10550939307575
 30
0.0
 40
1.9
 41
43.8029952143363
 46
0.0
 71
     1
 72
     5
  1
{\fSimSun|b0|i0|c134|p2;\C3;3.未标圆角为Ｒ１}
 73
     1
 44
1.0
  0
DIMENSION
  5
1279
102
{ACAD_XDICTIONARY
360
127A
102
}
102
{ACAD_REACTORS
330
127B
102
}
330
11E3
100
AcDbEntity
  8
dim
100
AcDbDimension
280
     0
  2
*D10
 10
103.1367024313292
 20
41.43673706939028
 30
0.0
 11
99.13670243132902
 21
42.53673706939031
 31
0.0
 12
-1215.533107086906
 22
-417.4396766419114
 32
0.0
 71
     5
 42
8.000000000000227
 73
     0
 74
     0
 75
     0
  3
ISO-25
100
AcDbAlignedDimension
 13
95.13670243132901
 23
54.63355712426824
 33
0.0
 14
103.1367024313292
 24
47.03265658915557
 34
0.0
100
AcDbRotatedDimension
1001
ACAD
1000
DSTYLE
1002
{
1070
    74
1070
     1
1070
   343
1005
0
1070
   344
1005
0
1002
}
  0
ENDBLK
  5
127F
330
11E3
100
AcDbEntity
  8
0
100
AcDbBlockEnd
  0
BLOCK
  5
8B3E
330
8B3C
100
AcDbEntity
  8
0
100
AcDbBlockBegin
  2
GENAXEH
 70
     0
 10
0.0
 20
0.0
 30
0.0
  3
GENAXEH
  1

  0
LINE
  5
8B3D
330
8B3C
100
AcDbEntity
  8
0
100
AcDbLine
 10
-1.0
 20
0.0
 30
0.0
 11
1.0
 21
0.0
 31
0.0
  0
ENDBLK
  5
8B3F
330
8B3C
100
AcDbEntity
  8
0
100
AcDbBlockEnd
  0
BLOCK
  5
91C3
330
91C2
100
AcDbEntity
  8
0
100
AcDbBlockBegin
  2
*D13
 70
     1
 10
0.0
 20
0.0
 30
0.0
  3
*D13
  1

  0
LINE
  5
96EE
330
91C2
100
AcDbEntity
  8
mark
440
 16777216
370
    -2
100
AcDbLine
 10
189.9999995487238
 20
118.4971964060044
 30
0.0
 11
189.9999995487238
 21
131.7728079880789
 31
0.0
  0
LINE
  5
96EF
330
91C2
100
AcDbEntity
  8
mark
440
 16777216
370
    -2
100
AcDbLine
 10
213.9999995487233
 20
118.4971964060044
 30
0.0
 11
213.9999995487233
 21
131.7728079880789
 31
0.0
  0
LINE
  5
96F0
330
91C2
100
AcDbEntity
  8
mark
440
 16777216
370
    -2
100
AcDbLine
 10
192.4999995487238
 20
130.9228079880789
 30
0.0
 11
211.4999995487233
 21
130.9228079880789
 31
0.0
  0
INSERT
  5
96F1
330
91C2
100
AcDbEntity
  8
mark
440
 16777216
370
    -2
100
AcDbBlockReference
  2
_Open30
 10
189.9999995487238
 20
130.9228079880789
 30
0.0
 41
2.5
 42
2.5
 43
2.5
 50
180.0
  0
INSERT
  5
96F2
330
91C2
100
AcDbEntity
  8
mark
440
 16777216
370
    -2
100
AcDbBlockReference
  2
_Open30
 10
213.9999995487233
 20
130.9228079880789
 30
0.0
 41
2.5
 42
2.5
 43
2.5
  0
MTEXT
  5
96F3
330
91C2
100
AcDbEntity
  8
mark
 62
     3
440
 16777216
100
AcDbMText
 10
201.9999995487236
 20
133.0228079880789
 30
0.0
 40
2.5
 41
0.0
 46
0.0
 71
     5
 72
     1
  1
24
 73
     1
 44
1.0
  0
POINT
  5
96F4
330
91C2
100
AcDbEntity
  8
Defpoints
 62
     0
440
 16777216
100
AcDbPoint
 10
189.9999995487238
 20
117.6471964060044
 30
0.0
  0
POINT
  5
96F5
330
91C2
100
AcDbEntity
  8
Defpoints
 62
     0
440
 16777216
100
AcDbPoint
 10
213.9999995487233
 20
117.6471964060044
 30
0.0
  0
POINT
  5
96F6
330
91C2
100
AcDbEntity
  8
Defpoints
 62
     0
440
 16777216
100
AcDbPoint
 10
213.9999995487233
 20
130.9228079880789
 30
0.0
  0
ENDBLK
  5
91C4
330
91C2
100
AcDbEntity
  8
0
100
AcDbBlockEnd
  0
BLOCK
  5
91DB
330
91DA
100
AcDbEntity
  8
0
100
AcDbBlockBegin
  2
*D14
 70
     1
 10
0.0
 20
0.0
 30
0.0
  3
*D14
  1

  0
LINE
  5
9700
330
91DA
100
AcDbEntity
  8
mark
440
 16777216
370
    -2
100
AcDbLine
 10
103.9999995487235
 20
120.286093855076
 30
0.0
 11
103.9999995487235
 21
131.7728079880789
 31
0.0
  0
LINE
  5
9701
330
91DA
100
AcDbEntity
  8
mark
440
 16777216
370
    -2
100
AcDbLine
 10
79.9999995487235
 20
123.286093855076
 30
0.0
 11
79.9999995487235
 21
131.7728079880789
 31
0.0
  0
LINE
  5
9702
330
91DA
100
AcDbEntity
  8
mark
440
 16777216
370
    -2
100
AcDbLine
 10
101.4999995487235
 20
130.9228079880789
 30
0.0
 11
82.4999995487235
 21
130.9228079880789
 31
0.0
  0
INSERT
  5
9703
330
91DA
100
AcDbEntity
  8
mark
440
 16777216
370
    -2
100
AcDbBlockReference
  2
_Open30
 10
103.9999995487235
 20
130.9228079880789
 30
0.0
 41
2.5
 42
2.5
 43
2.5
  0
INSERT
  5
9704
330
91DA
100
AcDbEntity
  8
mark
440
 16777216
370
    -2
100
AcDbBlockReference
  2
_Open30
 10
79.9999995487235
 20
130.9228079880789
 30
0.0
 41
2.5
 42
2.5
 43
2.5
 50
180.0
  0
MTEXT
  5
9705
330
91DA
100
AcDbEntity
  8
mark
 62
     3
440
 16777216
100
AcDbMText
 10
91.99999954872351
 20
133.0228079880789
 30
0.0
 40
2.5
 41
0.0
 46
0.0
 71
     5
 72
     1
  1
24
 73
     1
 44
1.0
  0
POINT
  5
9706
330
91DA
100
AcDbEntity
  8
Defpoints
 62
     0
440
 16777216
100
AcDbPoint
 10
103.9999995487235
 20
119.436093855076
 30
0.0
  0
POINT
  5
9707
330
91DA
100
AcDbEntity
  8
Defpoints
 62
     0
440
 16777216
100
AcDbPoint
 10
79.9999995487235
 20
122.436093855076
 30
0.0
  0
POINT
  5
9708
330
91DA
100
AcDbEntity
  8
Defpoints
 62
     0
440
 16777216
100
AcDbPoint
 10
79.9999995487235
 20
130.9228079880789
 30
0.0
  0
ENDBLK
  5
91DC
330
91DA
100
AcDbEntity
  8
0
100
AcDbBlockEnd
  0
BLOCK
  5
91F3
330
91F2
100
AcDbEntity
  8
0
100
AcDbBlockBegin
  2
*D15
 70
     1
 10
0.0
 20
0.0
 30
0.0
  3
*D15
  1

  0
LINE
  5
9709
330
91F2
100
AcDbEntity
  8
mark
440
 16777216
370
    -2
100
AcDbLine
 10
79.99999954872348
 20
123.2860938550759
 30
0.0
 11
79.99999954872348
 21
131.7728079880789
 31
0.0
  0
LINE
  5
970A
330
91F2
100
AcDbEntity
  8
mark
440
 16777216
370
    -2
100
AcDbLine
 10
66.99999954872338
 20
118.401718855076
 30
0.0
 11
66.99999954872338
 21
131.7728079880789
 31
0.0
  0
LINE
  5
970B
330
91F2
100
AcDbEntity
  8
mark
440
 16777216
370
    -2
100
AcDbLine
 10
77.49999954872348
 20
130.9228079880789
 30
0.0
 11
69.49999954872338
 21
130.9228079880789
 31
0.0
  0
INSERT
  5
970C
330
91F2
100
AcDbEntity
  8
mark
440
 16777216
370
    -2
100
AcDbBlockReference
  2
_Open30
 10
79.99999954872348
 20
130.9228079880789
 30
0.0
 41
2.5
 42
2.5
 43
2.5
  0
INSERT
  5
970D
330
91F2
100
AcDbEntity
  8
mark
440
 16777216
370
    -2
100
AcDbBlockReference
  2
_Open30
 10
66.99999954872338
 20
130.9228079880789
 30
0.0
 41
2.5
 42
2.5
 43
2.5
 50
180.0
  0
MTEXT
  5
970E
330
91F2
100
AcDbEntity
  8
mark
 62
     3
440
 16777216
100
AcDbMText
 10
73.49999954872342
 20
133.0228079880789
 30
0.0
 40
2.5
 41
0.0
 46
0.0
 71
     5
 72
     1
  1
13
 73
     1
 44
1.0
  0
POINT
  5
970F
330
91F2
100
AcDbEntity
  8
Defpoints
 62
     0
440
 16777216
100
AcDbPoint
 10
79.99999954872348
 20
122.4360938550759
 30
0.0
  0
POINT
  5
9710
330
91F2
100
AcDbEntity
  8
Defpoints
 62
     0
440
 16777216
100
AcDbPoint
 10
66.99999954872338
 20
117.551718855076
 30
0.0
  0
POINT
  5
9711
330
91F2
100
AcDbEntity
  8
Defpoints
 62
     0
440
 16777216
100
AcDbPoint
 10
66.99999954872338
 20
130.9228079880789
 30
0.0
  0
ENDBLK
  5
91F4
330
91F2
100
AcDbEntity
  8
0
100
AcDbBlockEnd
  0
BLOCK
  5
920B
330
920A
100
AcDbEntity
  8
0
100
AcDbBlockBegin
  2
*D16
 70
     1
 10
0.0
 20
0.0
 30
0.0
  3
*D16
  1

  0
LINE
  5
97A6
330
920A
100
AcDbEntity
  8
mark
440
 16777216
370
    -2
100
AcDbLine
 10
119.4452574644798
 20
76.74819525219982
 30
0.0
 11
126.5857815834971
 21
69.60767113318261
 31
0.0
  0
LINE
  5
97A7
330
920A
100
AcDbEntity
  8
mark
440
 16777216
370
    -2
100
AcDbLine
 10
123.6878981515992
 20
80.99083593931915
 30
0.0
 11
130.8284222706164
 21
73.85031182030195
 31
0.0
  0
LINE
  5
97A8
330
920A
100
AcDbEntity
  8
mark
440
 16777216
370
    -2
100
AcDbLine
 10
125.9847408194885
 20
70.20871189719118
 30
0.0
 11
130.2273815066078
 21
74.45135258431051
 31
0.0
  0
INSERT
  5
97A9
330
920A
100
AcDbEntity
  8
mark
440
 16777216
370
    -2
100
AcDbBlockReference
  2
_DotSmall
 10
125.9847408194885
 20
70.20871189719118
 30
0.0
 41
2.5
 42
2.5
 43
2.5
 50
225.0000000000002
  0
INSERT
  5
97AA
330
920A
100
AcDbEntity
  8
mark
440
 16777216
370
    -2
100
AcDbBlockReference
  2
_DotSmall
 10
130.2273815066078
 20
74.45135258431051
 30
0.0
 41
2.5
 42
2.5
 43
2.5
 50
45.00000000000019
  0
MTEXT
  5
97AB
330
920A
100
AcDbEntity
  8
mark
 62
     3
440
 16777216
100
AcDbMText
 10
126.6211369225564
 20
73.81495648124261
 30
0.0
 40
2.5
 41
0.0
 46
0.0
 71
     5
 72
     1
  1
%%C6
 11
0.7071067811865453
 21
0.7071067811865499
 31
0.0
 73
     1
 44
1.0
  0
POINT
  5
97AC
330
920A
100
AcDbEntity
  8
Defpoints
 62
     0
440
 16777216
100
AcDbPoint
 10
118.8442167004713
 20
77.34923601620838
 30
0.0
  0
POINT
  5
97AD
330
920A
100
AcDbEntity
  8
Defpoints
 62
     0
440
 16777216
100
AcDbPoint
 10
123.0868573875906
 20
81.59187670332771
 30
0.0
  0
POINT
  5
97AE
330
920A
100
AcDbEntity
  8
Defpoints
 62
     0
440
 16777216
100
AcDbPoint
 10
130.2273815066078
 20
74.45135258431051
 30
0.0
  0
ENDBLK
  5
920C
330
920A
100
AcDbEntity
  8
0
100
AcDbBlockEnd
  0
BLOCK
  5
9227
330
9226
100
AcDbEntity
  8
0
100
AcDbBlockBegin
  2
*D17
 70
     1
 10
0.0
 20
0.0
 30
0.0
  3
*D17
  1

  0
LINE
  5
97C7
330
9226
100
AcDbEntity
  8
mark
440
 16777216
370
    -2
100
AcDbLine
 10
124.607136967142
 20
81.48581068614992
 30
0.0
 11
137.7869649247826
 21
68.30598272850903
 31
0.0
  0
LINE
  5
97C8
330
9226
100
AcDbEntity
  8
mark
440
 16777216
370
    -2
100
AcDbLine
 10
118.9502827176495
 20
75.82895643665754
 30
0.0
 11
132.1301106752901
 21
62.64912847901666
 31
0.0
  0
LINE
  5
97C9
330
9226
100
AcDbEntity
  8
mark
440
 16777216
370
    -2
100
AcDbLine
 10
135.4181572078076
 20
67.13925653955127
 30
0.0
 11
133.2968368642479
 21
65.01793619599158
 31
0.0
  0
INSERT
  5
97CA
330
9226
100
AcDbEntity
  8
mark
440
 16777216
370
    -2
100
AcDbBlockReference
  2
_Open30
 10
137.185924160774
 20
68.90702349251762
 30
0.0
 41
2.5
 42
2.5
 43
2.5
 50
44.99999999999944
  0
INSERT
  5
97CB
330
9226
100
AcDbEntity
  8
mark
440
 16777216
370
    -2
100
AcDbBlockReference
  2
_Open30
 10
131.5290699112815
 20
63.25016924302524
 30
0.0
 41
2.5
 42
2.5
 43
2.5
 50
224.9999999999994
  0
MTEXT
  5
97CC
330
9226
100
AcDbEntity
  8
mark
 62
     3
440
 16777216
100
AcDbMText
 10
132.872572795536
 20
67.56352060826319
 30
0.0
 40
2.5
 41
0.0
 46
0.0
 71
     5
 72
     1
  1
%%C8
 11
0.7071067811865545
 21
0.7071067811865407
 31
0.0
 73
     1
 44
1.0
  0
POINT
  5
97CD
330
9226
100
AcDbEntity
  8
Defpoints
 62
     0
440
 16777216
100
AcDbPoint
 10
124.0060962031334
 20
82.08685145015849
 30
0.0
  0
POINT
  5
97CE
330
9226
100
AcDbEntity
  8
Defpoints
 62
     0
440
 16777216
100
AcDbPoint
 10
118.3492419536409
 20
76.42999720066611
 30
0.0
  0
POINT
  5
97CF
330
9226
100
AcDbEntity
  8
Defpoints
 62
     0
440
 16777216
100
AcDbPoint
 10
131.5290699112815
 20
63.25016924302524
 30
0.0
  0
ENDBLK
  5
9228
330
9226
100
AcDbEntity
  8
0
100
AcDbBlockEnd
  0
BLOCK
  5
923F
330
923D
100
AcDbEntity
  8
0
100
AcDbBlockBegin
  2
_DotSmall
 70
     0
 10
0.0
 20
0.0
 30
0.0
  3
_DotSmall
  1

  0
LWPOLYLINE
  5
923E
330
923D
100
AcDbEntity
  8
0
  6
ByBlock
 62
     0
100
AcDbPolyline
 90
        2
 70
     1
 43
0.5
 10
-0.0625
 20
0.0
 42
1.0
 10
0.0625
 20
0.0
 42
1.0
  0
ENDBLK
  5
9240
330
923D
100
AcDbEntity
  8
0
100
AcDbBlockEnd
  0
BLOCK
  5
92AA
330
92A9
100
AcDbEntity
  8
0
100
AcDbBlockBegin
  2
*D19
 70
     1
 10
0.0
 20
0.0
 30
0.0
  3
*D19
  1

  0
LINE
  5
9739
330
92A9
100
AcDbEntity
  8
mark
440
 16777216
370
    -2
100
AcDbLine
 10
67.14999954872347
 20
115.436093855076
 30
0.0
 11
60.4777762790051
 21
115.436093855076
 31
0.0
  0
LINE
  5
973A
330
92A9
100
AcDbEntity
  8
mark
440
 16777216
370
    -2
100
AcDbLine
 10
67.14999954872347
 20
105.436093855076
 30
0.0
 11
60.47777627900509
 21
105.436093855076
 31
0.0
  0
LINE
  5
973B
330
92A9
100
AcDbEntity
  8
mark
440
 16777216
370
    -2
100
AcDbLine
 10
61.3277762790051
 20
112.936093855076
 30
0.0
 11
61.32777627900509
 21
107.936093855076
 31
0.0
  0
INSERT
  5
973C
330
92A9
100
AcDbEntity
  8
mark
440
 16777216
370
    -2
100
AcDbBlockReference
  2
_Open30
 10
61.3277762790051
 20
115.436093855076
 30
0.0
 41
2.5
 42
2.5
 43
2.5
 50
90.0
  0
INSERT
  5
973D
330
92A9
100
AcDbEntity
  8
mark
440
 16777216
370
    -2
100
AcDbBlockReference
  2
_Open30
 10
61.32777627900509
 20
105.436093855076
 30
0.0
 41
2.5
 42
2.5
 43
2.5
 50
270.0
  0
MTEXT
  5
973E
330
92A9
100
AcDbEntity
  8
mark
 62
     3
440
 16777216
100
AcDbMText
 10
59.22777627900508
 20
110.436093855076
 30
0.0
 40
2.5
 41
0.0
 46
0.0
 71
     5
 72
     1
  1
%%C10
 11
0.0000000000000001
 21
1.0
 31
0.0
 73
     1
 44
1.0
  0
POINT
  5
973F
330
92A9
100
AcDbEntity
  8
Defpoints
 62
     0
440
 16777216
100
AcDbPoint
 10
67.99999954872347
 20
115.436093855076
 30
0.0
  0
POINT
  5
9740
330
92A9
100
AcDbEntity
  8
Defpoints
 62
     0
440
 16777216
100
AcDbPoint
 10
67.99999954872347
 20
105.436093855076
 30
0.0
  0
POINT
  5
9741
330
92A9
100
AcDbEntity
  8
Defpoints
 62
     0
440
 16777216
100
AcDbPoint
 10
61.32777627900509
 20
105.436093855076
 30
0.0
  0
ENDBLK
  5
92AB
330
92A9
100
AcDbEntity
  8
0
100
AcDbBlockEnd
  0
BLOCK
  5
92C2
330
92C1
100
AcDbEntity
  8
0
100
AcDbBlockBegin
  2
*D20
 70
     1
 10
0.0
 20
0.0
 30
0.0
  3
*D20
  1

  0
LINE
  5
9742
330
92C1
100
AcDbEntity
  8
mark
440
 16777216
370
    -2
100
AcDbLine
 10
96.91963882560195
 20
110.4360938550761
 30
0.0
 11
115.9463778639955
 21
110.4360938550761
 31
0.0
  0
LINE
  5
9743
330
92C1
100
AcDbEntity
  8
mark
440
 16777216
370
    -2
100
AcDbLine
 10
104.601040312732
 20
118.9674953422062
 30
0.0
 11
110.1246157875253
 21
124.4910708169996
 31
0.0
  0
ARC
  5
9744
330
92C1
100
AcDbEntity
  8
mark
440
 16777216
370
    -2
100
AcDbCircle
 10
96.06963882560194
 20
110.4360938550761
 30
0.0
 40
19.02673903839353
100
AcDbArc
 50
7.533749655554664
 51
37.46625034444554
  0
INSERT
  5
9745
330
92C1
100
AcDbEntity
  8
mark
440
 16777216
370
    -2
100
AcDbBlockReference
  2
_Open30
 10
115.0963778639955
 20
110.4360938550761
 30
0.0
 41
2.5
 42
2.5
 43
2.5
 50
273.7668748277774
  0
INSERT
  5
9746
330
92C1
100
AcDbEntity
  8
mark
440
 16777216
370
    -2
100
AcDbBlockReference
  2
_Open30
 10
109.5235750235168
 20
123.890030052991
 30
0.0
 41
2.5
 42
2.5
 43
2.5
 50
131.2331251722228
  0
MTEXT
  5
9747
330
92C1
100
AcDbEntity
  8
mark
 62
     3
440
 16777216
100
AcDbMText
 10
115.5882006118808
 20
118.5209468649701
 30
0.0
 40
2.5
 41
0.0
 46
0.0
 71
     5
 72
     1
  1
45°
 11
0.3826834323650914
 21
-0.923879532511286
 31
0.0
 73
     1
 44
1.0
  0
POINT
  5
9748
330
92C1
100
AcDbEntity
  8
Defpoints
 62
     0
440
 16777216
100
AcDbPoint
 10
114.4480574528487
 20
115.360576284408
 30
0.0
  0
POINT
  5
9749
330
92C1
100
AcDbEntity
  8
Defpoints
 62
     0
440
 16777216
100
AcDbPoint
 10
89.99999954872363
 20
110.4360938550761
 30
0.0
  0
POINT
  5
974A
330
92C1
100
AcDbEntity
  8
Defpoints
 62
     0
440
 16777216
100
AcDbPoint
 10
88.85853627467385
 20
103.224991304148
 30
0.0
  0
POINT
  5
974B
330
92C1
100
AcDbEntity
  8
Defpoints
 62
     0
440
 16777216
100
AcDbPoint
 10
103.9999995487234
 20
118.3664545781977
 30
0.0
  0
POINT
  5
974C
330
92C1
100
AcDbEntity
  8
Defpoints
 62
     0
440
 16777216
100
AcDbPoint
 10
65.99999954872348
 20
110.436093855076
 30
0.0
  0
ENDBLK
  5
92C3
330
92C1
100
AcDbEntity
  8
0
100
AcDbBlockEnd
  0
BLOCK
  5
9334
330
9333
100
AcDbEntity
  8
0
100
AcDbBlockBegin
  2
*D21
 70
     1
 10
0.0
 20
0.0
 30
0.0
  3
*D21
  1

  0
LINE
  5
979D
330
9333
100
AcDbEntity
  8
mark
440
 16777216
370
    -2
100
AcDbLine
 10
104.601040312732
 20
118.9674953422062
 30
0.0
 11
114.8651256432448
 21
129.2315806727189
 31
0.0
  0
LINE
  5
979E
330
9333
100
AcDbEntity
  8
mark
440
 16777216
370
    -2
100
AcDbLine
 10
124.6071369671416
 20
82.40504950169222
 30
0.0
 11
143.1493968907065
 21
100.9473094252569
 31
0.0
  0
LINE
  5
979F
330
9333
100
AcDbEntity
  8
mark
440
 16777216
370
    -2
100
AcDbLine
 10
116.0318518322026
 20
126.8627729557439
 30
0.0
 11
140.7805891737316
 21
102.1140356142147
 31
0.0
  0
INSERT
  5
97A0
330
9333
100
AcDbEntity
  8
mark
440
 16777216
370
    -2
100
AcDbBlockReference
  2
_Open30
 10
114.2640848792363
 20
128.6305399087104
 30
0.0
 41
2.5
 42
2.5
 43
2.5
 50
134.9999999999996
  0
INSERT
  5
97A1
330
9333
100
AcDbEntity
  8
mark
440
 16777216
370
    -2
100
AcDbBlockReference
  2
_Open30
 10
142.5483561266979
 20
100.3462686612483
 30
0.0
 41
2.5
 42
2.5
 43
2.5
 50
314.9999999999997
  0
MTEXT
  5
97A2
330
9333
100
AcDbEntity
  8
mark
 62
     3
440
 16777216
100
AcDbMText
 10
129.8911447434589
 20
115.9733285254711
 30
0.0
 40
2.5
 41
0.0
 46
0.0
 71
     5
 72
     1
  1
40
 11
0.7071067811865435
 21
-0.7071067811865516
 31
0.0
 73
     1
 44
1.0
  0
POINT
  5
97A3
330
9333
100
AcDbEntity
  8
Defpoints
 62
     0
440
 16777216
100
AcDbPoint
 10
103.9999995487235
 20
118.3664545781976
 30
0.0
  0
POINT
  5
97A4
330
9333
100
AcDbEntity
  8
Defpoints
 62
     0
440
 16777216
100
AcDbPoint
 10
124.006096203133
 20
81.80400873768368
 30
0.0
  0
POINT
  5
97A5
330
9333
100
AcDbEntity
  8
Defpoints
 62
     0
440
 16777216
100
AcDbPoint
 10
142.5483561266979
 20
100.3462686612483
 30
0.0
  0
ENDBLK
  5
9335
330
9333
100
AcDbEntity
  8
0
100
AcDbBlockEnd
  0
BLOCK
  5
945E
330
945D
100
AcDbEntity
  8
0
100
AcDbBlockBegin
  2
*D22
 70
     1
 10
0.0
 20
0.0
 30
0.0
  3
*D22
  1

  0
LINE
  5
96F7
330
945D
100
AcDbEntity
  8
mark
440
 16777216
370
    -2
100
AcDbLine
 10
201.1499995487236
 20
124.436093855076
 30
0.0
 11
182.0310045869304
 21
124.436093855076
 31
0.0
  0
LINE
  5
96F8
330
945D
100
AcDbEntity
  8
mark
440
 16777216
370
    -2
100
AcDbLine
 10
201.1499995487236
 20
96.43609385507605
 30
0.0
 11
182.0310045869304
 21
96.43609385507605
 31
0.0
  0
LINE
  5
96F9
330
945D
100
AcDbEntity
  8
mark
440
 16777216
370
    -2
100
AcDbLine
 10
182.8810045869304
 20
121.936093855076
 30
0.0
 11
182.8810045869304
 21
98.93609385507605
 31
0.0
  0
INSERT
  5
96FA
330
945D
100
AcDbEntity
  8
mark
440
 16777216
370
    -2
100
AcDbBlockReference
  2
_Open30
 10
182.8810045869304
 20
124.436093855076
 30
0.0
 41
2.5
 42
2.5
 43
2.5
 50
90.0
  0
INSERT
  5
96FB
330
945D
100
AcDbEntity
  8
mark
440
 16777216
370
    -2
100
AcDbBlockReference
  2
_Open30
 10
182.8810045869304
 20
96.43609385507605
 30
0.0
 41
2.5
 42
2.5
 43
2.5
 50
270.0
  0
MTEXT
  5
96FC
330
945D
100
AcDbEntity
  8
mark
 62
     3
440
 16777216
100
AcDbMText
 10
180.7810045869304
 20
110.4360938550761
 30
0.0
 40
2.5
 41
0.0
 46
0.0
 71
     5
 72
     1
  1
28
 11
0.0000000000000001
 21
1.0
 31
0.0
 73
     1
 44
1.0
  0
POINT
  5
96FD
330
945D
100
AcDbEntity
  8
Defpoints
 62
     0
440
 16777216
100
AcDbPoint
 10
201.9999995487236
 20
124.436093855076
 30
0.0
  0
POINT
  5
96FE
330
945D
100
AcDbEntity
  8
Defpoints
 62
     0
440
 16777216
100
AcDbPoint
 10
201.9999995487236
 20
96.43609385507605
 30
0.0
  0
POINT
  5
96FF
330
945D
100
AcDbEntity
  8
Defpoints
 62
     0
440
 16777216
100
AcDbPoint
 10
182.8810045869304
 20
96.43609385507605
 30
0.0
  0
ENDBLK
  5
945F
330
945D
100
AcDbEntity
  8
0
100
AcDbBlockEnd
  0
BLOCK
  5
97F4
330
97F3
100
AcDbEntity
  8
0
100
AcDbBlockBegin
  2
*D23
 70
     1
 10
0.0
 20
0.0
 30
0.0
  3
*D23
  1

  0
LINE
  5
9859
330
97F3
100
AcDbEntity
  8
mark
  6
ByBlock
440
 16777216
370
    -2
100
AcDbLine
 10
94.29861922249566
 20
96.93081300113483
 30
0.0
 11
104.2126110445984
 21
40.70577142059952
 31
0.0
  0
LINE
  5
985A
330
97F3
100
AcDbEntity
  8
mark
  6
ByBlock
440
 16777216
370
    -2
100
AcDbLine
 10
122.6272379798194
 20
77.80885542397979
 30
0.0
 11
124.8533699695901
 21
75.58272343420907
 31
0.0
  0
ARC
  5
985B
330
97F3
100
AcDbEntity
  8
mark
  6
ByBlock
440
 16777216
370
    -2
100
AcDbCircle
 10
92.32771240597619
 20
108.1083809978234
 30
0.0
 40
67.59240347525793
100
AcDbArc
 50
282.1192857079789
 51
312.8807142920198
  0
INSERT
  5
985C
330
97F3
100
AcDbEntity
  8
mark
440
 16777216
370
    -2
100
AcDbBlockReference
  2
_Open30
 10
104.0650100935815
 20
41.5428580106599
 30
0.0
 41
2.5
 42
2.5
 43
2.5
 50
191.059642853989
  0
INSERT
  5
985D
330
97F3
100
AcDbEntity
  8
mark
440
 16777216
370
    -2
100
AcDbBlockReference
  2
_Open30
 10
140.1227592600279
 20
60.31333414377112
 30
0.0
 41
2.5
 42
2.5
 43
2.5
 50
43.94035714600981
  0
MTEXT
  5
985E
330
97F3
100
AcDbEntity
  8
mark
 62
     3
440
 16777216
100
AcDbMText
 10
122.5687388881052
 20
50.0159096243903
 30
0.0
 40
2.5
 41
0.0
 46
0.0
 71
     5
 72
     1
  1
35°
 11
0.8870108331782272
 21
0.4617486132350232
 31
0.0
 73
     1
 44
1.0
  0
POINT
  5
985F
330
97F3
100
AcDbEntity
  8
Defpoints
 62
     0
440
 16777216
100
AcDbPoint
 10
117.2832432806799
 20
45.29154817155167
 30
0.0
  0
POINT
  5
9860
330
97F3
100
AcDbEntity
  8
Defpoints
 62
     0
440
 16777216
100
AcDbPoint
 10
89.99999954872357
 20
110.436093855076
 30
0.0
  0
POINT
  5
9861
330
97F3
100
AcDbEntity
  8
Defpoints
 62
     0
440
 16777216
100
AcDbPoint
 10
92.32771240597616
 20
108.1083809978236
 30
0.0
  0
POINT
  5
9862
330
97F3
100
AcDbEntity
  8
Defpoints
 62
     0
440
 16777216
100
AcDbPoint
 10
94.15101827147877
 20
97.7678995911952
 30
0.0
  0
POINT
  5
9863
330
97F3
100
AcDbEntity
  8
Defpoints
 62
     0
440
 16777216
100
AcDbPoint
 10
122.0261972158109
 20
78.40989618798836
 30
0.0
  0
LINE
  5
9864
330
97F3
100
AcDbEntity
  8
mark
  6
ByBlock
440
 16777216
370
    -2
100
AcDbLine
 10
135.2413805125109
 20
65.19471289128819
 30
0.0
 11
140.7238000240365
 21
59.71229337976254
 31
0.0
  0
LINE
  5
9865
330
97F3
100
AcDbEntity
  8
mark
  6
ByBlock
440
 16777216
370
    -2
100
AcDbLine
 10
128.9899446395315
 20
71.44614876426771
 30
0.0
 11
131.1048058425696
 21
69.33128756122949
 31
0.0
  0
ENDBLK
  5
97F5
330
97F3
100
AcDbEntity
  8
0
100
AcDbBlockEnd
  0
BLOCK
  5
9810
330
980F
100
AcDbEntity
  8
0
100
AcDbBlockBegin
  2
*D24
 70
     1
 10
0.0
 20
0.0
 30
0.0
  3
*D24
  1

  0
LINE
  5
984C
330
980F
100
AcDbEntity
  8
mark
  6
ByBlock
440
 16777216
370
    -2
100
AcDbLine
 10
122.6272379798194
 20
77.80885542397979
 30
0.0
 11
124.8533699695901
 21
75.58272343420906
 31
0.0
  0
LINE
  5
984D
330
980F
100
AcDbEntity
  8
mark
  6
ByBlock
440
 16777216
370
    -2
100
AcDbLine
 10
103.5052804026646
 20
106.1374741813038
 30
0.0
 11
140.3880621821064
 21
99.63404463000578
 31
0.0
  0
ARC
  5
984E
330
980F
100
AcDbEntity
  8
mark
  6
ByBlock
440
 16777216
370
    -2
100
AcDbCircle
 10
92.32771240597607
 20
108.1083809978234
 30
0.0
 40
67.59240347525802
100
AcDbArc
 50
317.1192857079796
 51
347.8807142920203
  0
INSERT
  5
984F
330
980F
100
AcDbEntity
  8
mark
440
 16777216
370
    -2
100
AcDbBlockReference
  2
_Open30
 10
140.1227592600279
 20
60.31333414377112
 30
0.0
 41
2.5
 42
2.5
 43
2.5
 50
226.0596428539896
  0
INSERT
  5
9850
330
980F
100
AcDbEntity
  8
mark
440
 16777216
370
    -2
100
AcDbBlockReference
  2
_Open30
 10
158.8932353931395
 20
96.37108331021719
 30
0.0
 41
2.5
 42
2.5
 43
2.5
 50
78.94035714601024
  0
MTEXT
  5
9851
330
980F
100
AcDbEntity
  8
mark
 62
     3
440
 16777216
100
AcDbMText
 10
150.420183779409
 20
77.86735451569369
 30
0.0
 40
2.5
 41
0.0
 46
0.0
 71
     5
 72
     1
  1
35°
 11
0.4617486132350343
 21
0.8870108331782214
 31
0.0
 73
     1
 44
1.0
  0
POINT
  5
9852
330
980F
100
AcDbEntity
  8
Defpoints
 62
     0
440
 16777216
100
AcDbPoint
 10
92.32771240597607
 20
108.1083809978234
 30
0.0
  0
POINT
  5
9853
330
980F
100
AcDbEntity
  8
Defpoints
 62
     0
440
 16777216
100
AcDbPoint
 10
122.0261972158109
 20
78.40989618798835
 30
0.0
  0
POINT
  5
9854
330
980F
100
AcDbEntity
  8
Defpoints
 62
     0
440
 16777216
100
AcDbPoint
 10
102.6681938126043
 20
106.2850751323207
 30
0.0
  0
POINT
  5
9855
330
980F
100
AcDbEntity
  8
Defpoints
 62
     0
440
 16777216
100
AcDbPoint
 10
148.8003416536594
 20
70.96574843878468
 30
0.0
  0
LINE
  5
9856
330
980F
100
AcDbEntity
  8
mark
  6
ByBlock
440
 16777216
370
    -2
100
AcDbLine
 10
142.8500815646369
 20
99.19992418583845
 30
0.0
 11
159.7303219831999
 21
96.2234823592003
 31
0.0
  0
LINE
  5
9857
330
980F
100
AcDbEntity
  8
mark
  6
ByBlock
440
 16777216
370
    -2
100
AcDbLine
 10
135.2413805125109
 20
65.19471289128819
 30
0.0
 11
140.7238000240365
 21
59.71229337976254
 31
0.0
  0
LINE
  5
9858
330
980F
100
AcDbEntity
  8
mark
  6
ByBlock
440
 16777216
370
    -2
100
AcDbLine
 10
128.9899446395314
 20
71.44614876426773
 30
0.0
 11
131.1048058425696
 21
69.33128756122949
 31
0.0
  0
ENDBLK
  5
9811
330
980F
100
AcDbEntity
  8
0
100
AcDbBlockEnd
  0
ENDSEC
  0
SECTION
  2
ENTITIES
  0
LWPOLYLINE
  5
8E50
330
1F
100
AcDbEntity
  8
frame
100
AcDbPolyline
 90
        4
 70
     1
 43
0.0
 10
279.9999995487236
 20
-0.0000003077995814
 10
279.9999995487236
 20
189.9999996922004
 10
-0.0000004512765059
 20
189.9999996922004
 10
-0.0000004512765059
 20
-0.0000003077995245
  0
LINE
  5
8E51
330
1F
100
AcDbEntity
  8
frame
100
AcDbLine
 10
89.99999954872363
 20
9.99999969220042
 30
0.0
 11
279.9999995487236
 21
9.99999969220042
 31
0.0
  0
LINE
  5
8E52
330
1F
100
AcDbEntity
  8
frame
100
AcDbLine
 10
89.99999954872363
 20
19.99999969220042
 30
0.0
 11
194.9999995487235
 21
19.99999969220042
 31
0.0
  0
LINE
  5
8E53
330
1F
100
AcDbEntity
  8
frame
100
AcDbLine
 10
89.99999954872363
 20
29.99999969220048
 30
0.0
 11
279.9999995487236
 21
29.99999969220048
 31
0.0
  0
LINE
  5
8E54
330
1F
100
AcDbEntity
  8
frame
100
AcDbLine
 10
249.9999995487236
 20
-0.0000003077995814
 30
0.0
 11
249.9999995487236
 21
9.99999969220042
 31
0.0
  0
LINE
  5
8E55
330
1F
100
AcDbEntity
  8
frame
100
AcDbLine
 10
239.9999995487235
 20
9.99999969220042
 30
0.0
 11
239.9999995487235
 21
29.99999969220048
 31
0.0
  0
LINE
  5
8E56
330
1F
100
AcDbEntity
  8
frame
100
AcDbLine
 10
194.9999995487235
 20
29.99999969220048
 30
0.0
 11
194.9999995487235
 21
-0.0000003077995814
 31
0.0
  0
LINE
  5
8E57
330
1F
100
AcDbEntity
  8
frame
100
AcDbLine
 10
99.99999954872365
 20
29.99999969220048
 30
0.0
 11
99.99999954872365
 21
9.99999969220042
 31
0.0
  0
LINE
  5
8E58
330
1F
100
AcDbEntity
  8
frame
100
AcDbLine
 10
124.9999995487236
 20
29.99999969220048
 30
0.0
 11
124.9999995487236
 21
9.99999969220042
 31
0.0
  0
LINE
  5
8E59
330
1F
100
AcDbEntity
  8
frame
100
AcDbLine
 10
134.9999995487236
 20
19.99999969220042
 30
0.0
 11
134.9999995487236
 21
9.99999969220042
 31
0.0
  0
LINE
  5
8E5A
330
1F
100
AcDbEntity
  8
frame
100
AcDbLine
 10
169.9999995487236
 20
29.99999969220045
 30
0.0
 11
169.9999995487236
 21
9.999999692200391
 31
0.0
  0
CIRCLE
  5
8E5B
330
1F
100
AcDbEntity
  8
0
100
AcDbCircle
 10
135.5679277068672
 20
24.99999969220043
 30
0.0
 40
2.5
  0
CIRCLE
  5
8E5C
330
1F
100
AcDbEntity
  8
0
100
AcDbCircle
 10
135.5679277068672
 20
24.99999969220043
 30
0.0
 40
1.25
  0
LINE
  5
8E5D
330
1F
100
AcDbEntity
  8
0
100
AcDbLine
 10
135.5679277068672
 20
27.99999969220043
 30
0.0
 11
135.5679277068672
 21
21.99999969220042
 31
0.0
  0
LINE
  5
8E5E
330
1F
100
AcDbEntity
  8
0
100
AcDbLine
 10
132.5679277068672
 20
24.99999969220043
 30
0.0
 11
138.5679277068672
 21
24.99999969220043
 31
0.0
  0
LINE
  5
8E5F
330
1F
100
AcDbEntity
  8
0
100
AcDbLine
 10
143.7317763777404
 20
26.24999969220043
 30
0.0
 11
143.7317763777404
 21
23.74999969220042
 31
0.0
  0
LINE
  5
8E60
330
1F
100
AcDbEntity
  8
0
100
AcDbLine
 10
148.7317763777404
 20
27.49999969220043
 30
0.0
 11
148.7317763777404
 21
22.49999969220042
 31
0.0
  0
LINE
  5
8E61
330
1F
100
AcDbEntity
  8
0
100
AcDbLine
 10
143.7317763777404
 20
23.74999969220042
 30
0.0
 11
148.7317763777404
 21
22.49999969220042
 31
0.0
  0
LINE
  5
8E62
330
1F
100
AcDbEntity
  8
0
100
AcDbLine
 10
143.7317763777404
 20
26.24999969220043
 30
0.0
 11
148.7317763777404
 21
27.49999969220043
 31
0.0
  0
LINE
  5
8E63
330
1F
100
AcDbEntity
  8
0
100
AcDbLine
 10
143.2317763777404
 20
24.99999969220043
 30
0.0
 11
149.2317763777404
 21
24.99999969220043
 31
0.0
  0
MTEXT
  5
8E64
330
1F
100
AcDbEntity
  8
0
100
AcDbMText
 10
91.63818310948011
 20
27.14829901958937
 30
0.0
 40
5.0
 41
51.22143624535728
 46
0.0
 71
     1
 72
     5
  1
{\W0.5;日 付}
  7
TW
 73
     1
 44
1.0
  0
MTEXT
  5
8E65
330
1F
100
AcDbEntity
  8
0
100
AcDbMText
 10
111.0013147289541
 20
8.157782708224234
 30
0.0
 40
7.000000000000001
 41
73.98189987097693
 46
0.0
 71
     1
 72
     5
  1
{\W1.5;日機株式會社}
  7
TW
 73
     1
 44
1.0
  0
MTEXT
  5
8E66
330
1F
100
AcDbEntity
  8
0
100
AcDbMText
 10
161.6381831094801
 20
27.14829901958937
 30
0.0
 40
5.0
 41
51.22143624535728
 46
0.0
 71
     1
 72
     5
  1
{\W0.5;尺 度}
  7
TW
 73
     1
 44
1.0
  0
MTEXT
  5
8E67
330
1F
100
AcDbEntity
  8
0
100
AcDbMText
 10
161.6381831094801
 20
17.14829901958933
 30
0.0
 40
5.0
 41
51.22143624535728
 46
0.0
 71
     1
 72
     5
  1
{\W0.5;承 認}
  7
TW
 73
     1
 44
1.0
  0
MTEXT
  5
8E68
330
1F
100
AcDbEntity
  8
0
100
AcDbMText
 10
196.63818310948
 20
27.14829901958939
 30
0.0
 40
5.0
 41
51.22143624535728
 46
0.0
 71
     1
 72
     5
  1
{\W0.5;品 名}
  7
TW
 73
     1
 44
1.0
  0
MTEXT
  5
8E69
330
1F
100
AcDbEntity
  8
0
100
AcDbMText
 10
241.63818310948
 20
27.14829901958939
 30
0.0
 40
5.0
 41
51.22143624535728
 46
0.0
 71
     1
 72
     5
  1
{\W0.5;型 番}
  7
TW
 73
     1
 44
1.0
  0
LINE
  5
8E6A
330
1F
100
AcDbEntity
  8
frame
100
AcDbLine
 10
159.9999995487236
 20
29.99999969220048
 30
0.0
 11
159.9999995487236
 21
9.999999692200534
 31
0.0
  0
LINE
  5
8E6B
330
1F
100
AcDbEntity
  8
frame
100
AcDbLine
 10
89.99999954872363
 20
29.99999969220048
 30
0.0
 11
89.99999954872363
 21
-0.0000003077995245
 31
0.0
  0
MTEXT
  5
8E6C
330
1F
100
AcDbEntity
  8
0
100
AcDbMText
 10
105.0060606638122
 20
27.14829901958937
 30
0.0
 40
5.0
 41
51.22143624535728
 46
0.0
 71
     1
 72
     5
  1
{\W0.4;2018.05.16}
  7
TW
 73
     1
 44
1.0
  0
MTEXT
  5
8E6D
330
1F
100
AcDbEntity
  8
0
100
AcDbMText
 10
175.8885804737788
 20
27.14829901958934
 30
0.0
 40
5.0
 41
51.22143624535728
 46
0.0
 71
     1
 72
     5
  1
{\W0.5;NOT/S}
  7
TW
 73
     1
 44
1.0
  0
MTEXT
  5
8E6E
330
1F
100
AcDbEntity
  8
0
100
AcDbMText
 10
224.0476704603612
 20
7.370338825569378
 30
0.0
 40
5.0
 41
51.22143624535728
 46
0.0
 71
     1
 72
     5
  1
{\W0.5;NP80120}
  7
TW
 73
     1
 44
1.0
  0
MTEXT
  5
8E6F
330
1F
100
AcDbEntity
  8
0
100
AcDbMText
 10
196.8823296476539
 20
17.34637972825075
 30
0.0
 40
5.0
 41
51.22143624535728
 46
0.0
 71
     1
 72
     5
  1
{\W0.5;旋 迴 噴 水 頭}
  7
TW
 73
     1
 44
1.0
  0
MTEXT
  5
8E70
330
1F
100
AcDbEntity
  8
0
100
AcDbMText
 10
91.63818310948011
 20
17.14829901958936
 30
0.0
 40
5.0
 41
51.22143624535728
 46
0.0
 71
     1
 72
     5
  1
{\W0.5;製 圖}
  7
TW
 73
     1
 44
1.0
  0
MTEXT
  5
8E71
330
1F
100
AcDbEntity
  8
0
100
AcDbMText
 10
126.6381831094801
 20
17.14829901958936
 30
0.0
 40
5.0
 41
51.22143624535728
 46
0.0
 71
     1
 72
     5
  1
{\W0.5;檢 圖}
  7
TW
 73
     1
 44
1.0
  0
MTEXT
  5
8E72
330
1F
100
AcDbEntity
  8
0
100
AcDbMText
 10
196.63818310948
 20
7.148299019589332
 30
0.0
 40
5.0
 41
51.22143624535728
 46
0.0
 71
     1
 72
     5
  1
{\W0.5;圖面番號}
  7
TW
 73
     1
 44
1.0
  0
MTEXT
  5
8E73
330
1F
100
AcDbEntity
  8
0
100
AcDbMText
 10
251.63818310948
 20
7.148299019589332
 30
0.0
 40
5.0
 41
51.22143624535728
 46
0.0
 71
     1
 72
     5
  1
{\W0.5;變更}
  7
TW
 73
     1
 44
1.0
  0
MTEXT
  5
8E74
330
1F
100
AcDbEntity
  8
dim
100
AcDbMText
 10
4.845558126560363
 20
29.40792042351198
 30
0.0
 40
5.0
 41
88.9334505786709
 46
0.0
 71
     1
 72
     5
  1
備註：\P{\H0.7x;表面處理：染黑(主體、鋼管)；鍍鉻(鋼球)}
  7
TW
 73
     1
 44
1.0
  0
MTEXT
  5
8E75
330
1F
100
AcDbEntity
  8
0
100
AcDbMText
 10
242.0177090057952
 20
17.14829901958934
 30
0.0
 40
5.0
 41
51.22143624535728
 46
0.0
 71
     1
 72
     5
  1
{\W0.5;NNPT3/8B-40}
  7
TW
 73
     1
 44
1.0
  0
MTEXT
  5
8E76
330
1F
100
AcDbEntity
  8
0
100
AcDbMText
 10
101.5045473888017
 20
17.14829901958934
 30
0.0
 40
5.0
 41
51.22143624535728
 46
0.0
 71
     1
 72
     5
  1
{\W0.5;  林 彥 旭}
  7
TW
 73
     1
 44
1.0
  0
MTEXT
  5
8E77
330
1F
100
AcDbEntity
  8
0
100
AcDbMText
 10
141.4786411078894
 20
17.14829901958931
 30
0.0
 40
5.0
 41
51.22143624535728
 46
0.0
 71
     1
 72
     5
  1
{\W0.5;江 武 崇}
  7
TW
 73
     1
 44
1.0
  0
LINE
  5
8F00
330
1F
100
AcDbEntity
  8
contour
100
AcDbLine
 10
67.88361245194934
 20
102.4368559518501
 30
0.0
 11
67.88361245194934
 21
118.4353317583019
 31
0.0
  0
LINE
  5
8F01
102
{ACAD_REACTORS
330
9208
102
}
330
1F
100
AcDbEntity
  8
contour
100
AcDbLine
 10
66.99999954872343
 20
103.320468855076
 30
0.0
 11
66.99999954872338
 21
117.551718855076
 31
0.0
  0
LINE
  5
8F02
330
1F
100
AcDbEntity
  8
contour
100
AcDbLine
 10
88.22649307509408
 20
96.9360938550761
 30
0.0
 11
103.4999995487233
 21
112.2096003287052
 31
0.0
  0
LINE
  5
8F03
330
1F
100
AcDbEntity
  8
contour
100
AcDbLine
 10
82.06963882560172
 20
96.43609385507598
 30
0.0
 11
88.85853627467373
 21
103.2249913041479
 31
0.0
  0
LINE
  5
8F04
330
1F
100
AcDbEntity
  8
contour
100
AcDbLine
 10
103.9999995487235
 20
118.3664545781976
 30
0.0
 11
103.9999995487235
 21
119.4360938550759
 31
0.0
  0
SPLINE
  5
8F06
330
1F
100
AcDbEntity
  8
contour
100
AcDbSpline
210
0.0
220
0.0
230
1.0
 70
     8
 71
     3
 72
    18
 73
    14
 74
     0
 42
0.0000000001
 43
0.0000000001
 40
8.573346617103123
 40
8.573346617103123
 40
8.573346617103123
 40
8.573346617103123
 40
9.034409809832215
 40
9.034409809832215
 40
9.495473002561306
 40
9.495473002561306
 40
10.04075121620813
 40
10.04075121620813
 40
10.58602942985495
 40
10.58602942985495
 40
11.37054129626525
 40
11.37054129626525
 40
11.62315619958836
 40
11.62315619958836
 40
11.62315619958836
 40
11.62315619958836
 10
98.9999995487236
 20
117.6471964060039
 30
0.0
 10
99.1536872796332
 20
117.647196406004
 30
0.0
 10
99.32159586263333
 20
117.6324678464294
 30
0.0
 10
99.65117648966723
 20
117.5696307285207
 30
0.0
 10
99.81286458223678
 20
117.5216063739749
 30
0.0
 10
100.1258633339391
 20
117.4009557953595
 30
0.0
 10
100.3042032837651
 20
117.31217605591
 30
0.0
 10
100.6404873630601
 20
117.1013094503853
 30
0.0
 10
100.7985775284512
 20
116.9794555678941
 30
0.0
 10
101.1298402613581
 20
116.6849264383968
 30
0.0
 10
101.3235035332003
 20
116.4739192646537
 30
0.0
 10
101.5512899654451
 20
116.1728067205251
 30
0.0
 10
101.6046864386499
 20
116.0978167725395
 30
0.0
 10
101.6556545197599
 20
116.0221095492341
 30
0.0
  0
LINE
  5
8F07
102
{ACAD_REACTORS
330
92DB
330
9349
102
}
330
1F
100
AcDbEntity
  8
contour
100
AcDbLine
 10
88.85853627467383
 20
103.224991304148
 30
0.0
 11
103.9999995487234
 21
118.3664545781976
 31
0.0
  0
LINE
  5
8F08
330
1F
100
AcDbEntity
  8
contour
100
AcDbLine
 10
81.99999954872351
 20
103.224991304148
 30
0.0
 11
88.85853627467378
 21
103.224991304148
 31
0.0
  0
LINE
  5
8F09
330
1F
100
AcDbEntity
  8
contour
100
AcDbLine
 10
81.99999954872351
 20
117.647196406004
 30
0.0
 11
98.99999954872363
 21
117.647196406004
 31
0.0
  0
SPLINE
  5
8F0A
330
1F
100
AcDbEntity
  8
contour
100
AcDbSpline
210
0.0
220
0.0
230
1.0
 70
     8
 71
     3
 72
    26
 73
    22
 74
     0
 42
0.0000000001
 43
0.0000000001
 40
30.37232822878522
 40
30.37232822878522
 40
30.37232822878522
 40
30.37232822878522
 40
31.68061071741173
 40
31.68061071741173
 40
32.98889320603824
 40
32.98889320603824
 40
34.29717569466476
 40
34.29717569466476
 40
35.60545818329127
 40
35.60545818329127
 40
36.18064448635001
 40
36.18064448635001
 40
36.75583078940873
 40
36.75583078940873
 40
37.10437137778949
 40
37.10437137778949
 40
37.45291196617025
 40
37.45291196617025
 40
37.70916112607588
 40
37.70916112607588
 40
37.96541028598151
 40
37.96541028598151
 40
37.96541028598151
 40
37.96541028598151
 10
79.9999995487235
 20
110.436093855076
 30
0.0
 10
79.9999995487235
 20
110.8721880179514
 30
0.0
 10
79.9994536706372
 20
111.3296746883075
 30
0.0
 10
80.00350270283263
 20
112.2637760980923
 30
0.0
 10
80.00815734997818
 20
112.7403905776257
 30
0.0
 10
80.0425652757416
 20
113.6890312123629
 30
0.0
 10
80.07249894995863
 20
114.1608821681597
 30
0.0
 10
80.18646150013793
 20
115.0758381881069
 30
0.0
 10
80.26995974153317
 20
115.5190092674365
 30
0.0
 10
80.45720392827433
 20
116.1182598382922
 30
0.0
 10
80.53025131459671
 20
116.3159440846525
 30
0.0
 10
80.70937323858016
 20
116.6943897067863
 30
0.0
 10
80.8159115336557
 20
116.874931407797
 30
0.0
 10
81.00259568658461
 20
117.1197925052413
 30
0.0
 10
81.08700083601078
 20
117.2154967991326
 30
0.0
 10
81.2744931681566
 20
117.3850542206972
 30
0.0
 10
81.37782869853026
 20
117.4586325294868
 30
0.0
 10
81.55599040140961
 20
117.5529701667715
 30
0.0
 10
81.64261266596225
 20
117.5885873625408
 30
0.0
 10
81.82188940837566
 20
117.6357751541013
 30
0.0
 10
81.91458316208828
 20
117.647196406004
 30
0.0
 10
81.99999954872351
 20
117.6471964060041
 30
0.0
  0
SPLINE
  5
8F0B
330
1F
100
AcDbEntity
  8
contour
100
AcDbSpline
210
0.0
220
0.0
230
1.0
 70
     8
 71
     3
 72
    26
 73
    22
 74
     0
 42
0.0000000001
 43
0.0000000001
 40
22.77924617158892
 40
22.77924617158892
 40
22.77924617158892
 40
22.77924617158892
 40
23.03549533149455
 40
23.03549533149455
 40
23.29174449140019
 40
23.29174449140019
 40
23.64028507978094
 40
23.64028507978094
 40
23.98882566816169
 40
23.98882566816169
 40
24.56401197122043
 40
24.56401197122043
 40
25.13919827427916
 40
25.13919827427916
 40
26.44748076290567
 40
26.44748076290567
 40
27.75576325153219
 40
27.75576325153219
 40
29.0640457401587
 40
29.0640457401587
 40
30.37232822878522
 40
30.37232822878522
 40
30.37232822878522
 40
30.37232822878522
 10
81.99999954872351
 20
103.2249913041481
 30
0.0
 10
81.91458316208828
 20
103.224991304148
 30
0.0
 10
81.82188940837566
 20
103.2364125560506
 30
0.0
 10
81.64261266596222
 20
103.2836003476109
 30
0.0
 10
81.55599040140964
 20
103.3192175433806
 30
0.0
 10
81.37782869853012
 20
103.413555180665
 30
0.0
 10
81.27449316815646
 20
103.4871334894546
 30
0.0
 10
81.08700083601078
 20
103.6566909110195
 30
0.0
 10
81.00259568658461
 20
103.7523952049106
 30
0.0
 10
80.81591153365559
 20
103.9972563023549
 30
0.0
 10
80.70937323858013
 20
104.1777980033657
 30
0.0
 10
80.53025131459671
 20
104.5562436254995
 30
0.0
 10
80.45720392827439
 20
104.7539278718597
 30
0.0
 10
80.26995974153328
 20
105.3531784427154
 30
0.0
 10
80.18646150013806
 20
105.7963495220449
 30
0.0
 10
80.07249894995869
 20
106.7113055419921
 30
0.0
 10
80.0425652757416
 20
107.1831564977892
 30
0.0
 10
80.00815734997818
 20
108.1317971325263
 30
0.0
 10
80.00350270283263
 20
108.6084116120596
 30
0.0
 10
79.99945367063705
 20
109.5425130218445
 30
0.0
 10
79.9999995487235
 20
109.9999996922004
 30
0.0
 10
79.9999995487235
 20
110.436093855076
 30
0.0
  0
LINE
  5
8F0C
102
{ACAD_REACTORS
330
91F0
330
9208
102
}
330
1F
100
AcDbEntity
  8
contour
100
AcDbLine
 10
79.99999954872348
 20
122.4360938550759
 30
0.0
 11
79.9999995487235
 21
110.436093855076
 31
0.0
  0
LINE
  5
8F0D
330
1F
100
AcDbEntity
  8
contour
100
AcDbLine
 10
79.9999995487235
 20
110.436093855076
 30
0.0
 11
79.99999954872348
 21
98.43609385507599
 31
0.0
  0
LINE
  5
8F0E
330
1F
100
AcDbEntity
  8
contour
100
AcDbLine
 10
101.6074108420158
 20
106.0743709348783
 30
0.0
 11
94.36172246892107
 21
98.8286825617836
 31
0.0
  0
LINE
  5
8F0F
330
1F
100
AcDbEntity
  8
contour
100
AcDbLine
 10
124.0060962031331
 20
82.08685145015833
 30
0.0
 11
118.3492419536407
 21
76.4299972006659
 31
0.0
  0
LINE
  5
8F10
330
1F
100
AcDbEntity
  8
contour
100
AcDbLine
 10
118.6320846661154
 20
76.42999720066601
 30
0.0
 11
124.006096203133
 21
81.80400873768368
 31
0.0
  0
LINE
  5
8F12
330
1F
100
AcDbEntity
  8
contour
100
AcDbLine
 10
67.88361245194926
 20
102.4368559518503
 30
0.0
 11
78.49999954872328
 21
102.105093855076
 31
0.0
  0
LINE
  5
8F13
330
1F
100
AcDbEntity
  8
contour
100
AcDbLine
 10
67.88361245194934
 20
118.4353317583018
 30
0.0
 11
78.49999954872328
 21
118.767093855076
 31
0.0
  0
LINE
  5
8F14
330
1F
100
AcDbEntity
  8
contour
100
AcDbLine
 10
66.99999954872336
 20
103.3204688550761
 30
0.0
 11
67.88361245194934
 21
102.4368559518501
 31
0.0
  0
LINE
  5
8F15
330
1F
100
AcDbEntity
  8
contour
100
AcDbLine
 10
66.99999954872338
 20
117.551718855076
 30
0.0
 11
67.88361245194934
 21
118.4353317583019
 31
0.0
  0
LINE
  5
8F16
330
1F
100
AcDbEntity
  8
contour
100
AcDbLine
 10
81.99999954872344
 20
96.43609385507605
 30
0.0
 11
82.06963882560172
 21
96.43609385507604
 31
0.0
  0
LINE
  5
8F17
330
1F
100
AcDbEntity
  8
contour
100
AcDbLine
 10
103.4999995487234
 20
112.2096003287053
 30
0.0
 11
101.3433238661046
 21
115.7097788955787
 31
0.0
  0
LINE
  5
8F18
330
1F
100
AcDbEntity
  8
contour
100
AcDbLine
 10
88.22649307509413
 20
96.93609385507615
 30
0.0
 11
84.72631450822072
 21
99.09276953769509
 31
0.0
  0
ARC
  5
8F19
102
{ACAD_REACTORS
330
91F0
102
}
330
1F
100
AcDbEntity
  8
contour
100
AcDbCircle
 10
98.99999954872351
 20
119.436093855076
 30
0.0
 40
5.0
100
AcDbArc
 50
0.0
 51
90.0000000000004
  0
LINE
  5
8F1A
330
1F
100
AcDbEntity
  8
contour
100
AcDbLine
 10
81.99999954872351
 20
124.436093855076
 30
0.0
 11
98.99999954872356
 21
124.436093855076
 31
0.0
  0
ARC
  5
8F1B
330
1F
100
AcDbEntity
  8
contour
100
AcDbCircle
 10
81.99999954872351
 20
122.4360938550761
 30
0.0
 40
2.0
100
AcDbArc
 50
89.99999999999349
 51
180.0
  0
ARC
  5
8F1C
330
1F
100
AcDbEntity
  8
contour
100
AcDbCircle
 10
81.99999954872351
 20
98.4360938550761
 30
0.0
 40
2.0
100
AcDbArc
 50
180.0000000000032
 51
269.9999999999968
  0
LINE
  5
8F1D
330
1F
100
AcDbEntity
  8
contour
100
AcDbLine
 10
79.19999954872366
 20
118.7670938550758
 30
0.0
 11
78.49999954872328
 21
118.7670938550759
 31
0.0
  0
LINE
  5
8F1E
330
1F
100
AcDbEntity
  8
contour
100
AcDbLine
 10
79.19999954872366
 20
102.105093855076
 30
0.0
 11
78.49999954872328
 21
102.1050938550761
 31
0.0
  0
ARC
  5
8F1F
330
1F
100
AcDbEntity
  8
contour
100
AcDbCircle
 10
79.19999954872366
 20
119.5670938550758
 30
0.0
 40
0.8
100
AcDbArc
 50
269.9999999999935
 51
0.0
  0
ARC
  5
8F20
330
1F
100
AcDbEntity
  8
contour
100
AcDbCircle
 10
79.19999954872366
 20
101.305093855076
 30
0.0
 40
0.8
100
AcDbArc
 50
0.0000000000032569
 51
90.0000000000004
  0
ARC
  5
8F21
330
1F
100
AcDbEntity
  8
contour
100
AcDbCircle
 10
92.32771240597605
 20
108.1083809978234
 30
0.0
 40
9.50000000000003
100
AcDbArc
 50
347.6368975035539
 51
13.24313614070276
  0
ARC
  5
8F22
330
1F
100
AcDbEntity
  8
contour
100
AcDbCircle
 10
92.32771240597605
 20
108.1083809978234
 30
0.0
 40
9.500000000000028
100
AcDbArc
 50
256.7568638592973
 51
282.3631024964461
  0
LINE
  5
8F23
102
{ACAD_REACTORS
330
923C
102
}
330
1F
100
AcDbEntity
  8
contour
100
AcDbLine
 10
95.15613953072227
 20
99.6230996235848
 30
0.0
 11
118.3492419536408
 21
76.42999720066597
 31
0.0
  0
LINE
  5
8F24
102
{ACAD_REACTORS
330
923C
102
}
330
1F
100
AcDbEntity
  8
contour
100
AcDbLine
 10
100.8129937802146
 20
105.2799538730771
 30
0.0
 11
124.0060962031332
 21
82.08685145015849
 31
0.0
  0
LINE
  5
8F25
102
{ACAD_REACTORS
330
9349
102
}
330
1F
100
AcDbEntity
  8
contour
100
AcDbLine
 10
124.006096203133
 20
81.80400873768368
 30
0.0
 11
124.0060962031331
 21
82.08685145015833
 31
0.0
  0
LINE
  5
8F26
330
1F
100
AcDbEntity
  8
contour
100
AcDbLine
 10
118.6320846661154
 20
76.42999720066601
 30
0.0
 11
118.3492419536407
 21
76.42999720066601
 31
0.0
  0
ELLIPSE
  5
8F27
330
1F
100
AcDbEntity
  8
contour
100
AcDbEllipse
 10
201.9999995487235
 20
104.5728470918907
 30
0.0
 11
-10.79999999999984
 21
0.0
 31
0.0
210
0.0
220
0.0
230
1.0
 40
0.7071067811865465
 41
1.950204041922626
 42
7.474573918846752
  0
ELLIPSE
  5
8F28
330
1F
100
AcDbEntity
  8
contour
100
AcDbEllipse
 10
201.9999995487235
 20
104.5728470918906
 30
0.0
 11
10.49999999999954
 21
0.0
 31
0.0
210
0.0
220
0.0
230
1.0
 40
0.7071067811865463
 41
5.103215110960149
 42
7.853981633974482
  0
ELLIPSE
  5
8F29
330
1F
100
AcDbEntity
  8
contour
100
AcDbEllipse
 10
201.9999995487235
 20
104.5728470918906
 30
0.0
 11
10.49999999999954
 21
0.0
 31
0.0
210
0.0
220
0.0
230
1.0
 40
0.7071067811865463
 41
1.570796326794896
 42
4.32156284980923
  0
ELLIPSE
  5
8F2A
330
1F
100
AcDbEntity
  8
contour
100
AcDbEllipse
 10
201.9999995487235
 20
107.4012742166368
 30
0.0
 11
-11.75
 21
0.0
 31
0.0
210
0.0
220
0.0
230
1.0
 40
0.7071067811865467
 41
2.90180125374975
 42
5.978088082366546
  0
ELLIPSE
  5
8F2B
330
1F
100
AcDbEntity
  8
contour
100
AcDbEllipse
 10
201.9999995487235
 20
107.4012742166368
 30
0.0
 11
-11.75
 21
0.0
 31
0.0
210
0.0
220
0.0
230
1.0
 40
0.7071067811865467
 41
5.978088082366546
 42
6.522976707019635
  0
LINE
  5
8F2C
330
1F
100
AcDbEntity
  8
contour
100
AcDbLine
 10
197.7444879694692
 20
118.3664545781977
 30
0.0
 11
206.2555111279779
 21
118.3664545781977
 31
0.0
  0
ARC
  5
8F2D
330
1F
100
AcDbEntity
  8
contour
100
AcDbCircle
 10
201.9999995487236
 20
110.436093855076
 30
0.0
 40
14.0
100
AcDbArc
 50
286.6015495990199
 51
328.9972808661241
  0
ARC
  5
8F2E
330
1F
100
AcDbEntity
  8
contour
100
AcDbCircle
 10
201.9999995487236
 20
110.436093855076
 30
0.0
 40
14.0
100
AcDbArc
 50
211.0027191338759
 51
253.3984504009795
  0
SPLINE
  5
8F2F
330
1F
100
AcDbEntity
  8
contour
100
AcDbSpline
210
0.0
220
0.0
230
1.0
 70
     8
 71
     3
 72
    28
 73
    24
 74
     0
 42
0.0000000001
 43
0.0000000001
 40
41.67143908659354
 40
41.67143908659354
 40
41.67143908659354
 40
41.67143908659354
 40
42.60219040725297
 40
42.60219040725297
 40
43.53294172791239
 40
43.53294172791239
 40
44.46369304857183
 40
44.46369304857183
 40
45.39444436923126
 40
45.39444436923126
 40
46.15571174712175
 40
46.15571174712175
 40
46.91697912501224
 40
46.91697912501224
 40
47.67824650290272
 40
47.67824650290272
 40
48.43951388079322
 40
48.43951388079322
 40
49.13626332345145
 40
49.13626332345145
 40
49.83301276610969
 40
49.83301276610969
 40
49.87874074428207
 40
49.87874074428207
 40
49.87874074428207
 40
49.87874074428207
 10
206.2555111279779
 20
118.3664545781977
 30
0.0
 10
206.5657615681977
 20
118.3664545781977
 30
0.0
 10
206.8911311416469
 20
118.3598873831306
 30
0.0
 10
207.5541102231618
 20
118.327489823914
 30
0.0
 10
207.8917152251241
 20
118.3016133701012
 30
0.0
 10
208.5615150019927
 20
118.2280334453828
 30
0.0
 10
208.8938398054497
 20
118.1803009686731
 30
0.0
 10
209.536580614184
 20
118.0649269760418
 30
0.0
 10
209.8469979702719
 20
117.9972892227914
 30
0.0
 10
210.3776460288295
 20
117.8621676689173
 30
0.0
 10
210.6242754778112
 20
117.7917559136948
 30
0.0
 10
211.1180538331301
 20
117.6320871988656
 30
0.0
 10
211.3651944336869
 20
117.5428173966842
 30
0.0
 10
211.8464563125448
 20
117.3484618578565
 30
0.0
 10
212.0806609295103
 20
117.2433360213709
 30
0.0
 10
212.524901750582
 20
117.0230139322009
 30
0.0
 10
212.7349402328416
 20
116.9078199762739
 30
0.0
 10
213.1057776005267
 20
116.6856926517303
 30
0.0
 10
213.2851554836239
 20
116.5693630198569
 30
0.0
 10
213.6355206128408
 20
116.3202564722594
 30
0.0
 10
213.8064978018721
 20
116.1874724840544
 30
0.0
 10
213.9788833973715
 20
116.0403046628019
 30
0.0
 10
213.9894614930095
 20
116.0312180292837
 30
0.0
 10
213.9999995487236
 20
116.0221095492341
 30
0.0
  0
SPLINE
  5
8F30
330
1F
100
AcDbEntity
  8
contour
100
AcDbSpline
210
0.0
220
0.0
230
1.0
 70
     8
 71
     3
 72
    28
 73
    24
 74
     0
 42
0.0000000001
 43
0.0000000001
 40
25.46944061579977
 40
25.46944061579977
 40
25.46944061579977
 40
25.46944061579977
 40
25.51516859397217
 40
25.51516859397217
 40
26.21191803663041
 40
26.21191803663041
 40
26.90866747928865
 40
26.90866747928865
 40
27.66993485717913
 40
27.66993485717913
 40
28.43120223506962
 40
28.43120223506962
 40
29.19246961296011
 40
29.19246961296011
 40
29.9537369908506
 40
29.9537369908506
 40
30.88448831151004
 40
30.88448831151004
 40
31.81523963216946
 40
31.81523963216946
 40
32.7459909528289
 40
32.7459909528289
 40
33.67674227348833
 40
33.67674227348833
 40
33.67674227348833
 40
33.67674227348833
 10
189.9999995487235
 20
116.0221095492341
 30
0.0
 10
190.0105376044376
 20
116.0312180292837
 30
0.0
 10
190.0211157000755
 20
116.0403046628019
 30
0.0
 10
190.193501295575
 20
116.1874724840545
 30
0.0
 10
190.3644784846063
 20
116.3202564722594
 30
0.0
 10
190.7148436138231
 20
116.5693630198566
 30
0.0
 10
190.8942214969203
 20
116.6856926517304
 30
0.0
 10
191.2650588646053
 20
116.9078199762739
 30
0.0
 10
191.4750973468651
 20
117.0230139322009
 30
0.0
 10
191.9193381679367
 20
117.2433360213709
 30
0.0
 10
192.1535427849023
 20
117.3484618578565
 30
0.0
 10
192.6348046637601
 20
117.5428173966842
 30
0.0
 10
192.881945264317
 20
117.6320871988656
 30
0.0
 10
193.3757236196359
 20
117.7917559136946
 30
0.0
 10
193.6223530686176
 20
117.8621676689173
 30
0.0
 10
194.1530011271751
 20
117.9972892227914
 30
0.0
 10
194.4634184832631
 20
118.0649269760419
 30
0.0
 10
195.1061592919973
 20
118.1803009686731
 30
0.0
 10
195.4384840954542
 20
118.2280334453828
 30
0.0
 10
196.108283872323
 20
118.3016133701012
 30
0.0
 10
196.4458888742852
 20
118.327489823914
 30
0.0
 10
197.1088679558002
 20
118.3598873831306
 30
0.0
 10
197.4342375292493
 20
118.3664545781977
 30
0.0
 10
197.7444879694692
 20
118.3664545781977
 30
0.0
  0
SPLINE
  5
8F31
330
1F
100
AcDbEntity
  8
contour
100
AcDbSpline
210
0.0
220
0.0
230
1.0
 70
    24
 71
     3
 72
    18
 73
    14
 74
     0
 42
0.0000000001
 43
0.0000000001
 40
8.573346617103123
 40
8.573346617103123
 40
8.573346617103123
 40
8.573346617103123
 40
9.034409809832215
 40
9.034409809832215
 40
9.495473002561306
 40
9.495473002561306
 40
10.04075121620813
 40
10.04075121620813
 40
10.58602942985495
 40
10.58602942985495
 40
11.37054129626525
 40
11.37054129626525
 40
11.62315619958836
 40
11.62315619958836
 40
11.62315619958836
 40
11.62315619958836
 10
189.9999995487235
 20
117.647196406004
 30
0.0
 10
189.9999995487235
 20
117.6471964060041
 30
0.0
 10
189.9999995487235
 20
117.6324678464295
 30
0.0
 10
189.9999995487235
 20
117.5696307285207
 30
0.0
 10
189.9999995487235
 20
117.521606373975
 30
0.0
 10
189.9999995487235
 20
117.4009557953596
 30
0.0
 10
189.9999995487235
 20
117.3121760559101
 30
0.0
 10
189.9999995487235
 20
117.1013094503854
 30
0.0
 10
189.9999995487235
 20
116.9794555678941
 30
0.0
 10
189.9999995487235
 20
116.6849264383969
 30
0.0
 10
189.9999995487235
 20
116.4739192646538
 30
0.0
 10
189.9999995487235
 20
116.1728067205252
 30
0.0
 10
189.9999995487235
 20
116.0978167725396
 30
0.0
 10
189.9999995487235
 20
116.0221095492341
 30
0.0
  0
LINE
  5
8F32
330
1F
100
AcDbEntity
  8
contour
100
AcDbLine
 10
189.9999995487235
 20
103.224991304148
 30
0.0
 11
189.9999995487235
 21
116.0221095492341
 31
0.0
  0
ARC
  5
8F33
102
{ACAD_REACTORS
330
91D8
330
9473
102
}
330
1F
100
AcDbEntity
  8
contour
100
AcDbCircle
 10
201.9999995487236
 20
110.436093855076
 30
0.0
 40
14.0
100
AcDbArc
 50
31.00271913387593
 51
148.997280866124
  0
LINE
  5
8F34
330
1F
100
AcDbEntity
  8
contour
100
AcDbLine
 10
213.9999995487235
 20
116.0221095492341
 30
0.0
 11
213.9999995487235
 21
103.224991304148
 31
0.0
  0
SPLINE
  5
8F35
330
1F
100
AcDbEntity
  8
contour
100
AcDbSpline
210
0.0
220
0.0
230
1.0
 70
    24
 71
     3
 72
    18
 73
    14
 74
     0
 42
0.0000000001
 43
0.0000000001
 40
22.67023026882412
 40
22.67023026882412
 40
22.67023026882412
 40
22.67023026882412
 40
22.92284517214721
 40
22.92284517214721
 40
23.70735703855753
 40
23.70735703855753
 40
24.25263525220438
 40
24.25263525220438
 40
24.79791346585122
 40
24.79791346585122
 40
25.25897665858029
 40
25.25897665858029
 40
25.72003985130935
 40
25.72003985130935
 40
25.72003985130935
 40
25.72003985130935
 10
213.9999995487236
 20
116.0221095492341
 30
0.0
 10
213.9999995487236
 20
116.0978167725396
 30
0.0
 10
213.9999995487236
 20
116.1728067205252
 30
0.0
 10
213.9999995487236
 20
116.4739192646538
 30
0.0
 10
213.9999995487236
 20
116.6849264383969
 30
0.0
 10
213.9999995487236
 20
116.9794555678941
 30
0.0
 10
213.9999995487236
 20
117.1013094503857
 30
0.0
 10
213.9999995487236
 20
117.3121760559103
 30
0.0
 10
213.9999995487236
 20
117.4009557953596
 30
0.0
 10
213.9999995487236
 20
117.521606373975
 30
0.0
 10
213.9999995487236
 20
117.5696307285207
 30
0.0
 10
213.9999995487236
 20
117.6324678464295
 30
0.0
 10
213.9999995487236
 20
117.6471964060041
 30
0.0
 10
213.9999995487236
 20
117.647196406004
 30
0.0
  0
ELLIPSE
  5
8F36
330
1F
100
AcDbEntity
  8
contour
100
AcDbEllipse
 10
201.9999995487235
 20
102.451526748331
 30
0.0
 11
-5.123475382979818
 21
0.0
 31
0.0
210
0.0
220
0.0
230
1.0
 40
0.707106781186547
 41
4.712388980384689
 42
6.958164331896504
  0
ELLIPSE
  5
8F37
330
1F
100
AcDbEntity
  8
contour
100
AcDbEllipse
 10
201.9999995487235
 20
102.451526748331
 30
0.0
 11
-5.123475382979818
 21
0.0
 31
0.0
210
0.0
220
0.0
230
1.0
 40
0.707106781186547
 41
2.466613628872875
 42
4.712388980384689
  0
ELLIPSE
  5
8F38
330
1F
100
AcDbEntity
  8
contour
100
AcDbEllipse
 10
201.9999995487235
 20
102.451526748331
 30
0.0
 11
-4.375
 21
0.0
 31
0.0
210
0.0
220
0.0
230
1.0
 40
0.707106781186547
 41
4.712388980384689
 42
6.700240601465366
  0
ELLIPSE
  5
8F39
330
1F
100
AcDbEntity
  8
contour
100
AcDbEllipse
 10
201.9999995487235
 20
102.451526748331
 30
0.0
 11
-4.375
 21
0.0
 31
0.0
210
0.0
220
0.0
230
1.0
 40
0.707106781186547
 41
2.724537359304012
 42
4.712388980384689
  0
ELLIPSE
  5
8F3A
330
1F
100
AcDbEntity
  8
contour
100
AcDbEllipse
 10
201.9999995487235
 20
104.9971111606026
 30
0.0
 11
-9.817170748034357
 21
0.0
 31
0.0
210
0.0
220
0.0
230
1.0
 40
0.7071067811865471
 41
4.712388980384689
 42
7.434322305189488
  0
ELLIPSE
  5
8F3B
330
1F
100
AcDbEntity
  8
contour
100
AcDbEllipse
 10
201.9999995487235
 20
104.9971111606026
 30
0.0
 11
-9.817170748034357
 21
0.0
 31
0.0
210
0.0
220
0.0
230
1.0
 40
0.7071067811865471
 41
1.99045565557989
 42
4.712388980384689
  0
ELLIPSE
  5
8F3C
330
1F
100
AcDbEntity
  8
contour
100
AcDbEllipse
 10
201.9999995487235
 20
105.3506645511959
 30
0.0
 11
-10.50000000000017
 21
0.0
 31
0.0
210
0.0
220
0.0
230
1.0
 40
0.7071067811865471
 41
0.052404935501897
 42
1.179970196219463
  0
ELLIPSE
  5
8F3D
330
1F
100
AcDbEntity
  8
contour
100
AcDbEllipse
 10
201.9999995487235
 20
105.3506645511959
 30
0.0
 11
-10.50000000000017
 21
0.0
 31
0.0
210
0.0
220
0.0
230
1.0
 40
0.7071067811865471
 41
1.96162245737033
 42
3.089187718087896
  0
ELLIPSE
  5
8F3E
330
1F
100
AcDbEntity
  8
contour
100
AcDbEllipse
 10
201.9999995487235
 20
104.9971111606027
 30
0.0
 11
-10.00000000000011
 21
0.0
 31
0.0
210
0.0
220
0.0
230
1.0
 40
0.7071067811865471
 41
5.314456103921749
 42
7.442464787906999
  0
ELLIPSE
  5
8F3F
330
1F
100
AcDbEntity
  8
contour
100
AcDbEllipse
 10
201.9999995487235
 20
104.9971111606027
 30
0.0
 11
-10.00000000000011
 21
0.0
 31
0.0
210
0.0
220
0.0
230
1.0
 40
0.7071067811865471
 41
1.982313172862379
 42
4.11032185684763
  0
ELLIPSE
  5
8F40
330
1F
100
AcDbEntity
  8
contour
100
AcDbEllipse
 10
201.9999995487235
 20
79.25842432541218
 30
0.0
 11
4.0
 21
0.0
 31
0.0
210
0.0
220
0.0
230
1.0
 40
0.7071067811865472
 41
0.0
 42
6.283185307179586
  0
ELLIPSE
  5
8F41
330
1F
100
AcDbEntity
  8
contour
100
AcDbEllipse
 10
201.9999995487235
 20
79.11700296917489
 30
0.0
 11
-3.799999999999997
 21
0.0
 31
0.0
210
0.0
220
0.0
230
1.0
 40
0.7071067811865472
 41
0.0
 42
6.283185307179586
  0
ELLIPSE
  5
8F42
330
1F
100
AcDbEntity
  8
contour
100
AcDbEllipse
 10
201.9999995487235
 20
79.11700296917489
 30
0.0
 11
3.5
 21
0.0
 31
0.0
210
0.0
220
0.0
230
1.0
 40
0.7071067811865472
 41
0.0
 42
6.283185307179586
  0
ELLIPSE
  5
8F43
330
1F
100
AcDbEntity
  8
contour
100
AcDbEllipse
 10
201.9999995487235
 20
79.47055635976822
 30
0.0
 11
-3.0
 21
0.0
 31
0.0
210
0.0
220
0.0
230
1.0
 40
0.7071067811865471
 41
0.0
 42
6.283185307179586
  0
LINE
  5
8F44
330
1F
100
AcDbEntity
  8
contour
100
AcDbLine
 10
212.4909849647841
 20
102.7591181981473
 30
0.0
 11
213.4138031263821
 21
105.4280043553882
 31
0.0
  0
LINE
  5
8F45
330
1F
100
AcDbEntity
  8
contour
100
AcDbLine
 10
191.5090141326629
 20
102.7591181981473
 30
0.0
 11
190.5861959710649
 21
105.4280043553882
 31
0.0
  0
ARC
  5
8F46
330
1F
100
AcDbEntity
  8
contour
100
AcDbCircle
 10
201.9999995487235
 20
108.1083809978235
 30
0.0
 40
9.500000000000028
100
AcDbArc
 50
294.9010623703675
 51
329.2099317164737
  0
ARC
  5
8F47
330
1F
100
AcDbEntity
  8
contour
100
AcDbCircle
 10
201.9999995487235
 20
108.1083809978235
 30
0.0
 40
9.500000000000028
100
AcDbArc
 50
210.7900682835263
 51
245.0989376296325
  0
LINE
  5
8F48
330
1F
100
AcDbEntity
  8
contour
100
AcDbLine
 10
197.9999995487235
 20
102.716691791276
 30
0.0
 11
197.9999995487235
 21
79.25842432541218
 31
0.0
  0
LINE
  5
8F49
330
1F
100
AcDbEntity
  8
contour
100
AcDbLine
 10
205.9999995487235
 20
102.716691791276
 30
0.0
 11
205.9999995487235
 21
79.25842432541218
 31
0.0
  0
LINE
  5
8F4A
102
{ACAD_REACTORS
330
92DB
102
}
330
1F
100
AcDbEntity
  8
center
 48
0.5
100
AcDbLine
 10
89.99999954872363
 20
110.4360938550761
 30
0.0
 11
65.99999954872346
 21
110.436093855076
 31
0.0
  0
LINE
  5
8F4B
102
{ACAD_REACTORS
330
980D
330
9827
102
}
330
1F
100
AcDbEntity
  8
center
 48
0.5
100
AcDbLine
 10
89.99999954872359
 20
110.436093855076
 30
0.0
 11
122.0261972158109
 21
78.40989618798836
 31
0.0
  0
LINE
  5
8F4C
330
1F
100
AcDbEntity
  8
contour
 62
     4
100
AcDbLine
 10
66.9999995487235
 20
117.551718855076
 30
0.0
 11
76.9325218375877
 21
117.8621101766031
 31
0.0
  0
LINE
  5
8F4D
330
1F
100
AcDbEntity
  8
contour
 62
     4
100
AcDbLine
 10
66.99999954872343
 20
103.320468855076
 30
0.0
 11
76.93252183758764
 21
103.010077533549
 31
0.0
  0
LINE
  5
8F4E
330
1F
100
AcDbEntity
  8
contour
 62
     4
100
AcDbLine
 10
78.49999954872351
 20
118.767093855076
 30
0.0
 11
76.9325218375877
 21
117.8621101766031
 31
0.0
  0
LINE
  5
8F4F
330
1F
100
AcDbEntity
  8
contour
 62
     4
100
AcDbLine
 10
78.49999954872345
 20
102.105093855076
 30
0.0
 11
76.93252183758767
 21
103.010077533549
 31
0.0
  0
LINE
  5
8F50
330
1F
100
AcDbEntity
  8
contour
 62
     4
100
AcDbLine
 10
76.9325218375877
 20
117.8621101766031
 30
0.0
 11
76.93252183758755
 21
103.010077533549
 31
0.0
  0
LINE
  5
8F51
330
1F
100
AcDbEntity
  8
contour
100
AcDbLine
 10
78.49999954872334
 20
118.767093855076
 30
0.0
 11
78.49999954872345
 21
102.105093855076
 31
0.0
  0
LINE
  5
8F52
102
{ACAD_REACTORS
330
9827
102
}
330
1F
100
AcDbEntity
  8
center
 48
0.5
100
AcDbLine
 10
92.32771240597605
 20
108.1083809978234
 30
0.0
 11
102.6681938126043
 21
106.2850751323207
 31
0.0
  0
LINE
  5
8F53
102
{ACAD_REACTORS
330
980D
102
}
330
1F
100
AcDbEntity
  8
center
 48
0.5
100
AcDbLine
 10
92.32771240597617
 20
108.1083809978236
 30
0.0
 11
94.15101827147879
 21
97.7678995911952
 31
0.0
  0
LINE
  5
915A
102
{ACAD_REACTORS
330
92BF
102
}
330
1F
100
AcDbEntity
  8
bowel
 48
0.5
100
AcDbLine
 10
67.99999954872347
 20
115.436093855076
 30
0.0
 11
79.9999995487235
 21
115.436093855076
 31
0.0
  0
LINE
  5
915B
102
{ACAD_REACTORS
330
92BF
102
}
330
1F
100
AcDbEntity
  8
bowel
 48
0.5
100
AcDbLine
 10
67.99999954872347
 20
105.436093855076
 30
0.0
 11
79.9999995487235
 21
105.436093855076
 31
0.0
  0
LINE
  5
915C
330
1F
100
AcDbEntity
  8
bowel
 48
0.5
100
AcDbLine
 10
66.99999954872348
 20
116.436093855076
 30
0.0
 11
67.99999954872347
 21
115.436093855076
 31
0.0
  0
LINE
  5
9163
330
1F
100
AcDbEntity
  8
bowel
 48
0.5
100
AcDbLine
 10
67.99999954872347
 20
105.436093855076
 30
0.0
 11
66.99999954872346
 21
104.436093855076
 31
0.0
  0
LINE
  5
9164
330
1F
100
AcDbEntity
  8
bowel
 48
0.5
100
AcDbLine
 10
67.99999954872347
 20
115.436093855076
 30
0.0
 11
67.99999954872347
 21
105.436093855076
 31
0.0
  0
LINE
  5
9165
330
1F
100
AcDbEntity
  8
bowel
 48
0.5
100
AcDbLine
 10
95.86324631190882
 20
100.3302064047713
 30
0.0
 11
118.8442167004713
 21
77.34923601620841
 31
0.0
  0
LINE
  5
9166
330
1F
100
AcDbEntity
  8
bowel
 48
0.5
100
AcDbLine
 10
100.1058869990281
 20
104.5728470918906
 30
0.0
 11
123.0868573875906
 21
81.59187670332778
 31
0.0
  0
LINE
  5
9167
330
1F
100
AcDbEntity
  8
bowel
 48
0.5
100
AcDbLine
 10
118.8442167004713
 20
77.34923601620838
 30
0.0
 11
118.8442167004713
 21
76.64212923502181
 31
0.0
  0
LINE
  5
9168
330
1F
100
AcDbEntity
  8
bowel
 48
0.5
100
AcDbLine
 10
123.0868573875906
 20
81.59187670332771
 30
0.0
 11
123.7939641687771
 21
81.59187670332771
 31
0.0
  0
LINE
  5
9169
102
{ACAD_REACTORS
330
9224
102
}
330
1F
100
AcDbEntity
  8
bowel
 48
0.5
100
AcDbLine
 10
118.8442167004713
 20
77.34923601620838
 30
0.0
 11
123.0868573875906
 21
81.59187670332773
 31
0.0
  0
LINE
  5
916A
330
1F
100
AcDbEntity
  8
center
 48
0.5
100
AcDbLine
 10
201.9999995487235
 20
75.42999720066601
 30
0.0
 11
201.9999995487236
 21
125.436093855076
 31
0.0
  0
DIMENSION
  5
91C1
102
{ACAD_XDICTIONARY
360
91CE
102
}
102
{ACAD_REACTORS
330
91D8
102
}
330
1F
100
AcDbEntity
  8
mark
100
AcDbDimension
280
     0
  2
*D13
 10
213.9999995487233
 20
130.9228079880789
 30
0.0
 11
201.9999995487236
 21
133.0228079880789
 31
0.0
 70
    32
 71
     5
 42
23.99999999999949
 73
     0
 74
     0
 75
     0
  3
ISO-25
100
AcDbAlignedDimension
 13
189.9999995487238
 23
117.6471964060044
 33
0.0
 14
213.9999995487233
 24
117.6471964060044
 34
0.0
100
AcDbRotatedDimension
  0
DIMENSION
  5
91D9
102
{ACAD_XDICTIONARY
360
91E6
102
}
102
{ACAD_REACTORS
330
91F0
102
}
330
1F
100
AcDbEntity
  8
mark
100
AcDbDimension
280
     0
  2
*D14
 10
79.9999995487235
 20
130.9228079880789
 30
0.0
 11
91.99999954872351
 21
133.0228079880789
 31
0.0
 70
    32
 71
     5
 42
24.0
 73
     0
 74
     0
 75
     0
  3
ISO-25
100
AcDbAlignedDimension
 13
103.9999995487235
 23
119.436093855076
 33
0.0
 14
79.9999995487235
 24
122.436093855076
 34
0.0
100
AcDbRotatedDimension
  0
DIMENSION
  5
91F1
102
{ACAD_XDICTIONARY
360
91FE
102
}
102
{ACAD_REACTORS
330
9208
102
}
330
1F
100
AcDbEntity
  8
mark
100
AcDbDimension
280
     0
  2
*D15
 10
66.99999954872338
 20
130.9228079880789
 30
0.0
 11
73.49999954872342
 21
133.0228079880789
 31
0.0
 70
    32
 71
     5
 42
13.0000000000001
 73
     0
 74
     0
 75
     0
  3
ISO-25
100
AcDbAlignedDimension
 13
79.99999954872348
 23
122.4360938550759
 33
0.0
 14
66.99999954872338
 24
117.551718855076
 34
0.0
100
AcDbRotatedDimension
  0
DIMENSION
  5
9209
102
{ACAD_XDICTIONARY
360
9218
102
}
102
{ACAD_REACTORS
330
9224
330
9828
330
9840
102
}
330
1F
100
AcDbEntity
  8
mark
100
AcDbDimension
280
     0
  2
*D16
 10
130.2273815066078
 20
74.45135258431051
 30
0.0
 11
126.6211369225564
 21
73.81495648124261
 31
0.0
 70
    33
  1
%%C<>
 71
     5
 42
6.000000000000056
 73
     0
 74
     0
 75
     0
  3
ISO-25
100
AcDbAlignedDimension
 13
118.8442167004713
 23
77.34923601620838
 33
0.0
 14
123.0868573875906
 24
81.59187670332773
 34
0.0
1001
ACAD
1000
DSTYLE
1002
{
1070
   343
1005
923D
1070
   342
1005
0
1070
   173
1070
     1
1070
   344
1005
923D
1002
}
  0
DIMENSION
  5
9225
102
{ACAD_XDICTIONARY
360
9232
102
}
102
{ACAD_REACTORS
330
923C
330
9828
330
9840
102
}
330
1F
100
AcDbEntity
  8
mark
100
AcDbDimension
280
     0
  2
*D17
 10
131.5290699112815
 20
63.25016924302524
 30
0.0
 11
132.872572795536
 21
67.56352060826319
 31
0.0
 70
    33
  1
%%C<>
 71
     5
 42
8.000000000000085
 73
     0
 74
     0
 75
     0
  3
ISO-25
100
AcDbAlignedDimension
 13
124.0060962031334
 23
82.08685145015847
 33
0.0
 14
118.3492419536409
 24
76.42999720066611
 34
0.0
  0
LEADER
  5
9289
330
1F
100
AcDbEntity
  8
mark
100
AcDbLeader
  3
ISO-25
 76
     3
 10
73.19180600033631
 20
118.6012128066889
 30
0.0
 10
67.44441997882528
 20
124.3485988281999
 30
0.0
 10
51.1088483678516
 20
124.3485988281999
 30
0.0
211
1.0
221
-0.0000000000000016
231
0.0
  0
MTEXT
  5
928A
330
1F
100
AcDbEntity
  8
dim
100
AcDbMText
 10
57.22840920247794
 20
126.8242826729581
 30
0.0
 40
2.5
 41
0.0
 46
0.0
 71
     5
 72
     1
  1
{\Ftxt,bigfont|c136;PT3/8}
 73
     1
 44
1.0
  0
DIMENSION
  5
92A8
102
{ACAD_XDICTIONARY
360
92B5
102
}
102
{ACAD_REACTORS
330
92BF
102
}
330
1F
100
AcDbEntity
  8
mark
100
AcDbDimension
280
     0
  2
*D19
 10
61.32777627900509
 20
105.436093855076
 30
0.0
 11
59.22777627900508
 21
110.436093855076
 31
0.0
 70
    32
  1
%%C<>
 71
     5
 42
10.0
 73
     0
 74
     0
 75
     0
  3
ISO-25
100
AcDbAlignedDimension
 13
67.99999954872347
 23
115.436093855076
 33
0.0
 14
67.99999954872347
 24
105.436093855076
 34
0.0
 50
90.0000000000004
100
AcDbRotatedDimension
  0
DIMENSION
  5
92C0
102
{ACAD_XDICTIONARY
360
92CF
102
}
102
{ACAD_REACTORS
330
92DB
102
}
330
1F
100
AcDbEntity
  8
mark
100
AcDbDimension
280
     0
  2
*D20
 10
65.99999954872346
 20
110.436093855076
 30
0.0
 11
115.5882006118808
 21
118.5209468649701
 31
0.0
 70
    34
 71
     5
 42
0.7853981633974483
 73
     0
 74
     0
 75
     0
  3
ISO-25
100
AcDb2LineAngularDimension
 13
88.85853627467383
 23
103.224991304148
 33
0.0
 14
103.9999995487234
 24
118.3664545781976
 34
0.0
 15
89.99999954872363
 25
110.4360938550761
 35
0.0
 16
114.4480574528487
 26
115.360576284408
 36
0.0
  0
DIMENSION
  5
9332
102
{ACAD_XDICTIONARY
360
933F
102
}
102
{ACAD_REACTORS
330
9349
330
9828
102
}
330
1F
100
AcDbEntity
  8
mark
100
AcDbDimension
280
     0
  2
*D21
 10
142.5483561266979
 20
100.3462686612483
 30
0.0
 11
129.8911447434589
 21
115.9733285254711
 31
0.0
 70
    32
 71
     5
 42
39.99999999999992
 73
     0
 74
     0
 75
     0
  3
ISO-25
100
AcDbAlignedDimension
 13
103.9999995487234
 23
118.3664545781976
 33
0.0
 14
124.006096203133
 24
81.80400873768368
 34
0.0
 50
314.9999999999997
100
AcDbRotatedDimension
  0
ARC
  5
945B
102
{ACAD_REACTORS
330
9473
102
}
330
1F
100
AcDbEntity
  8
bowel
 48
0.5
100
AcDbCircle
 10
201.9999995487236
 20
110.436093855076
 30
0.0
 40
14.00000000000001
100
AcDbArc
 50
253.3984504009795
 51
286.6015495990199
  0
DIMENSION
  5
945C
102
{ACAD_XDICTIONARY
360
9469
102
}
102
{ACAD_REACTORS
330
9473
102
}
330
1F
100
AcDbEntity
  8
mark
100
AcDbDimension
280
     0
  2
*D22
 10
182.8810045869304
 20
96.43609385507605
 30
0.0
 11
180.7810045869304
 21
110.4360938550761
 31
0.0
 70
    32
 71
     5
 42
28.0
 73
     0
 74
     0
 75
     0
  3
ISO-25
100
AcDbAlignedDimension
 13
201.9999995487236
 23
124.436093855076
 33
0.0
 14
201.9999995487236
 24
96.43609385507605
 34
0.0
 50
90.0
100
AcDbRotatedDimension
  0
DIMENSION
  5
97F2
102
{ACAD_XDICTIONARY
360
9801
102
}
102
{ACAD_REACTORS
330
980D
330
9828
330
9840
102
}
330
1F
100
AcDbEntity
  8
mark
100
AcDbDimension
280
     0
  2
*D23
 10
122.0261972158109
 20
78.40989618798836
 30
0.0
 11
122.5687388881052
 21
50.0159096243903
 31
0.0
 70
    34
 71
     5
 42
0.6108652381980262
 73
     0
 74
     0
 75
     0
  3
ISO-25
100
AcDb2LineAngularDimension
 13
92.32771240597617
 23
108.1083809978236
 33
0.0
 14
94.15101827147879
 24
97.7678995911952
 34
0.0
 15
89.99999954872359
 25
110.436093855076
 35
0.0
 16
117.2832432806799
 26
45.29154817155167
 36
0.0
1001
ACAD
1000
DSTYLE
1002
{
1070
    49
1040
0.18
1070
    50
1040
0.7853981633974483
1070
    90
1070
     1
1070
   345
1005
14
1070
   346
1005
14
1070
   347
1005
14
1002
}
  0
DIMENSION
  5
980E
102
{ACAD_XDICTIONARY
360
981C
102
}
102
{ACAD_REACTORS
330
9827
330
9828
102
}
330
1F
100
AcDbEntity
  8
mark
100
AcDbDimension
280
     0
  2
*D24
 10
148.8003416536594
 20
70.96574843878468
 30
0.0
 11
150.4201837794089
 21
77.86735451569372
 31
0.0
 70
    37
 71
     5
 42
0.6108652381980227
 73
     0
 74
     0
 75
     0
  3
ISO-25
100
AcDb3PointAngularDimension
 13
122.0261972158109
 23
78.40989618798836
 33
0.0
 14
102.6681938126043
 24
106.2850751323207
 34
0.0
 15
92.32771240597605
 25
108.1083809978234
 35
0.0
1001
ACAD
1000
DSTYLE
1002
{
1070
    49
1040
0.18
1070
    50
1040
0.7853981633974483
1070
    90
1070
     1
1070
   345
1005
14
1070
   346
1005
14
1070
   347
1005
14
1002
}
  0
ENDSEC
  0
SECTION
  2
OBJECTS
  0
DICTIONARY
  5
C
330
0
100
AcDbDictionary
281
     1
  3
ACAD_COLOR
350
6B
  3
ACAD_GROUP
350
D
  3
ACAD_LAYOUT
350
1A
  3
ACAD_MATERIAL
350
6A
  3
ACAD_MLEADERSTYLE
350
8AB2
  3
ACAD_MLINESTYLE
350
17
  3
ACAD_PLOTSETTINGS
350
19
  3
ACAD_PLOTSTYLENAME
350
E
  3
ACAD_SCALELIST
350
8AA0
  3
ACAD_TABLESTYLE
350
7E
  3
ACAD_VISUALSTYLE
350
8A87
  3
AcadDim
350
1070
  3
ACDB_RECOMPOSE_DATA
350
9AED
  3
AcDbVariableDictionary
350
5E
  3
AcmDictionary
350
8B0D
  3
AMG
350
8ABE
  3
AMGSNAPSETTINGS
350
8B60
  0
DICTIONARY
  5
8B78
330
8
100
AcDbDictionary
280
     1
281
     1
  0
DICTIONARY
  5
86D
330
2
100
AcDbDictionary
280
     1
281
     1
  3
ACAD_LAYERFILTERS
360
6A79
  3
ACAD_LAYERSTATES
360
8B4
  3
ACLYDICTIONARY
360
6A78
  0
DICTIONARY
  5
8B4E
330
10
100
AcDbDictionary
280
     1
281
     1
  3
ADSK_XREC_LAYER_RECONCILED
360
8B4F
  0
DICTIONARY
  5
8B50
330
112
100
AcDbDictionary
280
     1
281
     1
  3
ADSK_XREC_LAYER_RECONCILED
360
8B51
  0
DICTIONARY
  5
8B52
330
114
100
AcDbDictionary
280
     1
281
     1
  3
ADSK_XREC_LAYER_RECONCILED
360
8B53
  0
DICTIONARY
  5
8B54
330
8A8
100
AcDbDictionary
280
     1
281
     1
  3
ADSK_XREC_LAYER_RECONCILED
360
8B55
  0
DICTIONARY
  5
8B56
330
8A9
100
AcDbDictionary
280
     1
281
     1
  3
ADSK_XREC_LAYER_RECONCILED
360
8B57
  0
DICTIONARY
  5
8B58
330
8AA
100
AcDbDictionary
280
     1
281
     1
  3
ADSK_XREC_LAYER_RECONCILED
360
8B59
  0
DICTIONARY
  5
8B5A
330
8AB
100
AcDbDictionary
280
     1
281
     1
  3
ADSK_XREC_LAYER_RECONCILED
360
8B5B
  0
DICTIONARY
  5
8B5C
330
4693
100
AcDbDictionary
280
     1
281
     1
  3
ADSK_XREC_LAYER_RECONCILED
360
8B5D
  0
DICTIONARY
  5
9D7
330
1F
100
AcDbDictionary
280
     1
281
     1
  3
ACAD_SORTENTS
360
9D8
  0
DICTIONARY
  5
127C
330
11E3
100
AcDbDictionary
280
     1
281
     1
  3
ACAD_SORTENTS
360
127D
  0
DICTIONARY
  5
124B
330
124A
100
AcDbDictionary
280
     1
281
     1
  3
ACAD_DIMASSOC
360
124C
  0
DICTIONARY
  5
124F
330
124E
100
AcDbDictionary
280
     1
281
     1
  3
ACAD_DIMASSOC
360
1250
  0
DICTIONARY
  5
1269
330
1268
100
AcDbDictionary
280
     1
281
     1
  3
ACAD_DIMASSOC
360
126A
  0
DICTIONARY
  5
126C
330
126B
100
AcDbDictionary
280
     1
281
     1
  3
ACAD_DIMASSOC
360
126D
  0
DICTIONARY
  5
126F
330
126E
100
AcDbDictionary
280
     1
281
     1
  3
ACAD_DIMASSOC
360
1270
  0
DICTIONARY
  5
1272
330
1271
100
AcDbDictionary
280
     1
281
     1
  3
ACAD_DIMASSOC
360
1273
  0
DICTIONARY
  5
1275
330
1274
100
AcDbDictionary
280
     1
281
     1
  3
ACAD_DIMASSOC
360
1276
  0
DICTIONARY
  5
127A
330
1279
100
AcDbDictionary
280
     1
281
     1
  3
ACAD_DIMASSOC
360
127B
  0
DICTIONARY
  5
91CE
330
91C1
100
AcDbDictionary
280
     1
281
     1
  3
ACAD_DIMASSOC
360
91D8
  0
DICTIONARY
  5
91E6
330
91D9
100
AcDbDictionary
280
     1
281
     1
  3
ACAD_DIMASSOC
360
91F0
  0
DICTIONARY
  5
91FE
330
91F1
100
AcDbDictionary
280
     1
281
     1
  3
ACAD_DIMASSOC
360
9208
  0
DICTIONARY
  5
9218
330
9209
100
AcDbDictionary
280
     1
281
     1
  3
ACAD_DIMASSOC
360
9224
  0
DICTIONARY
  5
9232
330
9225
100
AcDbDictionary
280
     1
281
     1
  3
ACAD_DIMASSOC
360
923C
  0
DICTIONARY
  5
92B5
330
92A8
100
AcDbDictionary
280
     1
281
     1
  3
ACAD_DIMASSOC
360
92BF
  0
DICTIONARY
  5
92CF
330
92C0
100
AcDbDictionary
280
     1
281
     1
  3
ACAD_DIMASSOC
360
92DB
  0
DICTIONARY
  5
933F
330
9332
100
AcDbDictionary
280
     1
281
     1
  3
ACAD_DIMASSOC
360
9349
  0
DICTIONARY
  5
9469
330
945C
100
AcDbDictionary
280
     1
281
     1
  3
ACAD_DIMASSOC
360
9473
  0
DICTIONARY
  5
9801
330
97F2
100
AcDbDictionary
280
     1
281
     1
  3
ACAD_DIMASSOC
360
980D
  3
ACMDIMBREAKPERSREACTOR
360
9840
  0
DICTIONARY
  5
981C
330
980E
100
AcDbDictionary
280
     1
281
     1
  3
ACAD_DIMASSOC
360
9827
  3
ACMDIMBREAKPERSREACTOR
360
9828
  0
DICTIONARY
  5
6B
102
{ACAD_REACTORS
330
C
102
}
330
C
100
AcDbDictionary
281
     1
  0
DICTIONARY
  5
D
102
{ACAD_REACTORS
330
C
102
}
330
C
100
AcDbDictionary
281
     1
  0
DICTIONARY
  5
1A
102
{ACAD_REACTORS
330
C
102
}
330
C
100
AcDbDictionary
281
     1
  3
Model
350
22
  3
布局1
350
D3
  3
布局2
350
D7
1001
ACADSTRINGINFO
1000
MIFCodePage
1070
     5
  0
DICTIONARY
  5
6A
102
{ACAD_REACTORS
330
C
102
}
330
C
100
AcDbDictionary
281
     1
  3
ByBlock
350
8A77
  3
ByLayer
350
8A6F
  3
Global
350
8A7F
  0
DICTIONARY
  5
8AB2
102
{ACAD_REACTORS
330
C
102
}
330
C
100
AcDbDictionary
281
     1
  3
Standard
350
8AB3
  0
DICTIONARY
  5
17
102
{ACAD_REACTORS
330
C
102
}
330
C
100
AcDbDictionary
281
     1
  3
Standard
350
18
  0
DICTIONARY
  5
19
102
{ACAD_REACTORS
330
C
102
}
330
C
100
AcDbDictionary
281
     1
  0
ACDBDICTIONARYWDFLT
  5
E
102
{ACAD_REACTORS
330
C
102
}
330
C
100
AcDbDictionary
281
     1
  3
Normal
350
F
100
AcDbDictionaryWithDefault
340
F
  0
DICTIONARY
  5
8AA0
102
{ACAD_REACTORS
330
C
102
}
330
C
100
AcDbDictionary
281
     1
  3
A0
350
8AA1
  3
A1
350
8AA2
  3
A2
350
8AA3
  3
A3
350
8AA4
  3
A4
350
8AA5
  3
A5
350
8AA6
  3
A6
350
8AA7
  3
A7
350
8AA8
  3
A8
350
8AA9
  3
A9
350
8AAA
  3
B0
350
8AAB
  3
B1
350
8AAC
  3
B2
350
8AAD
  3
B3
350
8AAE
  3
B4
350
8AAF
  3
B5
350
8AB0
  3
B6
350
8AB1
  0
DICTIONARY
  5
7E
102
{ACAD_REACTORS
330
C
102
}
330
C
100
AcDbDictionary
281
     1
  3
Standard
350
7F
  0
DICTIONARY
  5
8A87
102
{ACAD_REACTORS
330
C
102
}
330
C
100
AcDbDictionary
281
     1
  3
2dWireframe
350
8A8D
  3
Basic
350
8A8C
  3
Brighten
350
8A93
  3
ColorChange
350
8A97
  3
Conceptual
350
8A90
  3
Dim
350
8A92
  3
EdgeColorOff
350
8A9F
  3
Facepattern
350
8A96
  3
Flat
350
8A88
  3
FlatWithEdges
350
8A89
  3
Gouraud
350
8A8A
  3
GouraudWithEdges
350
8A8B
  3
Hidden
350
8A8F
  3
JitterOff
350
8A9D
  3
Linepattern
350
8A95
  3
OverhangOff
350
8A9E
  3
Realistic
350
8A91
  3
Shaded
350
8A9C
  3
Shaded with edges
350
8A9B
  3
Shades of Gray
350
8A98
  3
Sketchy
350
8A99
  3
Thicken
350
8A94
  3
Wireframe
350
8A8E
  3
X-Ray
350
8A9A
  0
XRECORD
  5
1070
102
{ACAD_REACTORS
330
C
102
}
330
C
100
AcDbXrecord
280
     1
 90
   990106
  3

 60
     0
 61
     0
 62
     1
 63
     3
 64
     0
 65
     0
 66
     0
 67
     3
 68
     1
 69
     0
 70
     0
 71
     0
 72
     0
 40
0.0
170
     0
  0
XRECORD
  5
9AED
102
{ACAD_REACTORS
330
C
102
}
330
C
100
AcDbXrecord
280
     1
 90
        1
330
7F
  0
DICTIONARY
  5
5E
102
{ACAD_REACTORS
330
C
102
}
330
C
100
AcDbDictionary
281
     1
  3
CANNOSCALE
350
8BC4
  3
CMLEADERSTYLE
350
8BC3
  3
CTABLESTYLE
350
84
  3
DIMASSOC
350
5F
  3
HIDETEXT
350
63
  3
INDEXCTL
350
8BC6
  3
LAYEREVAL
350
9AEA
  3
LAYERNOTIFY
350
9AEB
  3
LIGHTINGUNITS
350
9AE9
  3
MSLTSCALE
350
9AE8
  3
SORTENTS
350
8BC5
  0
DICTIONARY
  5
8B0D
102
{ACAD_REACTORS
330
C
102
}
330
C
100
AcDbDictionary
281
     1
  3
AcmStdDictionary
350
8B18
  0
DICTIONARY
  5
8ABE
102
{ACAD_REACTORS
330
C
102
}
330
C
100
AcDbDictionary
281
     1
  0
DICTIONARY
  5
8B60
102
{ACAD_REACTORS
330
C
102
}
330
C
100
AcDbDictionary
281
     1
  0
DICTIONARY
  5
6A79
102
{ACAD_REACTORS
330
86D
102
}
330
86D
100
AcDbDictionary
281
     1
  0
DICTIONARY
  5
8B4
102
{ACAD_REACTORS
330
86D
102
}
330
86D
100
AcDbDictionary
281
     1
  0
DICTIONARY
  5
6A78
102
{ACAD_REACTORS
330
86D
102
}
330
86D
100
AcDbDictionary
281
     1
1001
ACAD
1000
<All
  0
XRECORD
  5
8B4F
102
{ACAD_REACTORS
330
8B4E
102
}
330
8B4E
100
AcDbXrecord
280
     1
290
     1
  0
XRECORD
  5
8B51
102
{ACAD_REACTORS
330
8B50
102
}
330
8B50
100
AcDbXrecord
280
     1
290
     1
  0
XRECORD
  5
8B53
102
{ACAD_REACTORS
330
8B52
102
}
330
8B52
100
AcDbXrecord
280
     1
290
     1
  0
XRECORD
  5
8B55
102
{ACAD_REACTORS
330
8B54
102
}
330
8B54
100
AcDbXrecord
280
     1
290
     1
  0
XRECORD
  5
8B57
102
{ACAD_REACTORS
330
8B56
102
}
330
8B56
100
AcDbXrecord
280
     1
290
     1
  0
XRECORD
  5
8B59
102
{ACAD_REACTORS
330
8B58
102
}
330
8B58
100
AcDbXrecord
280
     1
290
     1
  0
XRECORD
  5
8B5B
102
{ACAD_REACTORS
330
8B5A
102
}
330
8B5A
100
AcDbXrecord
280
     1
290
     1
  0
XRECORD
  5
8B5D
102
{ACAD_REACTORS
330
8B5C
102
}
330
8B5C
100
AcDbXrecord
280
     1
290
     1
  0
SORTENTSTABLE
  5
9D8
102
{ACAD_REACTORS
330
9D7
102
}
330
9D7
100
AcDbSortentsTable
330
1F
331
91C1
  5
91D9
331
9169
  5
916A
331
8E77
  5
8E77
331
8E73
  5
8E73
331
8F36
  5
8F3C
331
8E6F
  5
8E6F
331
8F32
  5
8F38
331
8E6B
  5
8E6B
331
9165
  5
8F28
331
9332
  5
945B
331
8F2E
  5
8F34
331
8E67
  5
8E67
331
8F2A
  5
8F30
331
8E63
  5
8E63
331
8F26
  5
8F2C
331
8E5F
  5
8E5F
331
8F22
  5
8F26
331
8E5B
  5
8E5B
331
8F51
  5
9163
331
8F4D
  5
8F53
331
8F49
  5
8F4F
331
8F1E
  5
8F22
331
8E57
  5
8E57
331
8F1A
  5
8F1E
331
8E53
  5
8E53
331
8F16
  5
8F1A
331
8F12
  5
8F16
331
8F45
  5
8F4B
331
8F41
  5
8F47
331
8F3D
  5
8F43
331
8F39
  5
8F3F
331
8F0E
  5
8F0F
331
8F0A
  5
8F0B
331
8F06
  5
8F07
331
8F02
  5
8F03
331
9168
  5
8F13
331
8E76
  5
8E76
331
8E72
  5
8E72
331
8F35
  5
8F3B
331
8E6E
  5
8E6E
331
8F31
  5
8F37
331
8E6A
  5
8E6A
331
9164
  5
9169
331
980E
  5
980E
331
928A
  5
92A8
331
915C
  5
9167
331
8F2D
  5
8F33
331
8E66
  5
8E66
331
8F29
  5
8F2F
331
8E62
  5
8E62
331
8F25
  5
8F2B
331
8E5E
  5
8E5E
331
8F21
  5
8F25
331
8E5A
  5
8E5A
331
8F50
  5
915C
331
8F4C
  5
8F52
331
97F2
  5
97F2
331
8F48
  5
8F4E
331
8F1D
  5
8F21
331
8E56
  5
8E56
331
8F19
  5
8F1D
331
8E52
  5
8E52
331
8F15
  5
8F19
331
8F44
  5
8F4A
331
8F40
  5
8F46
331
945C
  5
97C6
331
8F3C
  5
8F42
331
8F38
  5
8F3E
331
8F0D
  5
8F0E
331
8F09
  5
8F0A
331
8F01
  5
8F01
331
8E75
  5
8E75
331
8E71
  5
8E71
331
8F34
  5
8F3A
331
8E6D
  5
8E6D
331
8F30
  5
8F36
331
8E69
  5
8E69
331
9167
  5
8F15
331
9163
  5
8F02
331
9289
  5
928A
331
915B
  5
9168
331
8F2C
  5
8F32
331
8E65
  5
8E65
331
8F28
  5
8F2E
331
8E61
  5
8E61
331
8E5D
  5
8E5D
331
8F24
  5
8F29
331
8E59
  5
8E59
331
8F20
  5
8F24
331
8F53
  5
9165
331
8F4F
  5
915B
331
8F4B
  5
8F51
331
8F1C
  5
8F20
331
8E55
  5
8E55
331
8F18
  5
8F1C
331
8E51
  5
8E51
331
8F14
  5
8F18
331
8F10
  5
8F11
331
8F47
  5
8F4D
331
8F43
  5
8F49
331
8F3F
  5
8F45
331
92C0
  5
9332
331
945B
  5
945C
331
9225
  5
9253
331
8F3B
  5
8F41
331
8F0C
  5
8F0D
331
8F08
  5
8F09
331
8F04
  5
8F05
331
8F00
  5
8F00
331
916A
  5
91C1
331
92A8
  5
92C0
331
8E74
  5
8E74
331
8F37
  5
8F3D
331
8E70
  5
8E70
331
8F33
  5
8F39
331
8E6C
  5
8E6C
331
8E68
  5
8E68
331
9166
  5
8F2A
331
9209
  5
9225
331
915A
  5
9166
331
8F2F
  5
8F35
331
8F2B
  5
8F31
331
8E64
  5
8E64
331
8F27
  5
8F2D
331
8E60
  5
8E60
331
8F23
  5
8F27
331
8E5C
  5
8E5C
331
8E58
  5
8E58
331
91F1
  5
9209
331
8F52
  5
9164
331
8F4E
  5
915A
331
8F4A
  5
8F50
331
8F1F
  5
8F23
331
8F1B
  5
8F1F
331
8E54
  5
8E54
331
8E50
  5
8E50
331
8F17
  5
8F1B
331
8F13
  5
8F17
331
8F46
  5
8F4C
331
91D9
  5
91F1
331
8F42
  5
8F48
331
8F3E
  5
8F44
331
8F3A
  5
8F40
331
8F0F
  5
8F10
331
8F0B
  5
8F0C
331
8F07
  5
8F08
331
8F03
  5
8F04
  0
SORTENTSTABLE
  5
127D
102
{ACAD_REACTORS
330
127C
102
}
330
127C
100
AcDbSortentsTable
330
11E3
  0
DIMASSOC
  5
124C
102
{ACAD_REACTORS
330
124B
102
}
330
124B
100
AcDbDimAssoc
330
124A
 90
        3
 70
     0
 71
     0
  1
AcDbOsnapPointRef
 72
    13
331
1246
 73
     2
 91
        0
 40
4.712388980384689
 10
0.0
 20
0.0
 30
2.000000000000000E+50
 75
     0
  1
AcDbOsnapPointRef
 72
     8
331
1248
 73
     2
 91
        0
 40
1.0
 10
0.0
 20
0.0
 30
0.0
 75
     1
  1
AcDbOsnapPointRef
 72
    13
331
1246
 73
     2
 91
        0
 40
4.712388980384689
 10
0.0
 20
0.0
 30
2.000000000000000E+50
 75
     0
  0
DIMASSOC
  5
1250
102
{ACAD_REACTORS
330
124F
102
}
330
124F
100
AcDbDimAssoc
330
124E
 90
        2
 70
     0
 71
     0
  1
AcDbOsnapPointRef
 72
     3
331
124D
 73
     2
 91
        0
 40
0.0
 10
0.0
 20
0.0
 30
0.0
 75
     0
  0
DIMASSOC
  5
126A
102
{ACAD_REACTORS
330
1269
102
}
330
1269
100
AcDbDimAssoc
330
1268
 90
        3
 70
     0
 71
     0
  1
AcDbOsnapPointRef
 72
    13
331
125B
 73
     2
 91
        0
 40
1.570796326794896
 10
0.0
 20
0.0
 30
2.000000000000000E+50
 75
     0
  1
AcDbOsnapPointRef
 72
     8
331
1263
 73
     2
 91
        0
 40
0.9999999999999682
 10
0.0
 20
0.0
 30
0.0
 75
     1
  1
AcDbOsnapPointRef
 72
    13
331
125B
 73
     2
 91
        0
 40
1.570796326794896
 10
0.0
 20
0.0
 30
2.000000000000000E+50
 75
     0
  0
DIMASSOC
  5
126D
102
{ACAD_REACTORS
330
126C
102
}
330
126C
100
AcDbDimAssoc
330
126B
 90
        3
 70
     0
 71
     0
  1
AcDbOsnapPointRef
 72
    13
331
1244
 73
     2
 91
        0
 40
0.0
 10
0.0
 20
0.0
 30
2.000000000000000E+50
 75
     0
  1
AcDbOsnapPointRef
 72
    13
331
1247
 73
     2
 91
        0
 40
3.141592653589793
 10
0.0
 20
0.0
 30
2.000000000000000E+50
 75
     0
  0
DIMASSOC
  5
1270
102
{ACAD_REACTORS
330
126F
102
}
330
126F
100
AcDbDimAssoc
330
126E
 90
        3
 70
     0
 71
     0
  1
AcDbOsnapPointRef
 72
    13
331
1247
 73
     2
 91
        0
 40
3.141592653589793
 10
0.0
 20
0.0
 30
2.000000000000000E+50
 75
     0
  1
AcDbOsnapPointRef
 72
     1
331
123B
 73
     2
 91
        0
 40
1.0
 10
0.0
 20
0.0
 30
2.000000000000000E+50
 75
     0
  0
DIMASSOC
  5
1273
102
{ACAD_REACTORS
330
1272
102
}
330
1272
100
AcDbDimAssoc
330
1271
 90
        2
 70
     0
 71
     0
  1
AcDbOsnapPointRef
 72
     1
331
1246
 73
     2
 91
        0
 40
6.283185307179586
 10
0.0
 20
0.0
 30
2.000000000000000E+50
 75
     0
  0
DIMASSOC
  5
1276
102
{ACAD_REACTORS
330
1275
102
}
330
1275
100
AcDbDimAssoc
330
1274
 90
        3
 70
     0
 71
     0
  1
AcDbOsnapPointRef
 72
     1
331
125E
 73
     2
 91
        0
 40
1.0
 10
0.0
 20
0.0
 30
2.000000000000000E+50
 75
     0
  1
AcDbOsnapPointRef
 72
    13
331
125E
 73
     2
 91
        0
 40
0.0
 10
0.0
 20
0.0
 30
2.000000000000000E+50
 75
     0
  0
DIMASSOC
  5
127B
102
{ACAD_REACTORS
330
127A
102
}
330
127A
100
AcDbDimAssoc
330
1279
 90
        1
 70
     0
 71
     0
  1
AcDbOsnapPointRef
 72
    13
331
1265
 73
     2
 91
        0
 40
0.0
 10
0.0
 20
0.0
 30
2.000000000000000E+50
 75
     0
  0
DIMASSOC
  5
91D8
102
{ACAD_REACTORS
330
91CE
102
}
330
91CE
100
AcDbDimAssoc
330
91C1
 90
        3
 70
     0
 71
     0
  1
AcDbOsnapPointRef
 72
     1
331
8F33
 73
     2
 91
        0
 40
2.600493127632613
 10
0.0
 20
0.0
 30
2.000000000000000E+50
 75
     0
  1
AcDbOsnapPointRef
 72
    13
331
8F33
 73
     2
 91
        0
 40
0.5410995259571802
 10
0.0
 20
0.0
 30
2.000000000000000E+50
 75
     0
  0
DIMASSOC
  5
91F0
102
{ACAD_REACTORS
330
91E6
102
}
330
91E6
100
AcDbDimAssoc
330
91D9
 90
        3
 70
     0
 71
     0
  1
AcDbOsnapPointRef
 72
    13
331
8F19
 73
     2
 91
        0
 40
0.0
 10
0.0
 20
0.0
 30
2.000000000000000E+50
 75
     0
  1
AcDbOsnapPointRef
 72
    13
331
8F0C
 73
     2
 91
        0
 40
0.0
 10
0.0
 20
0.0
 30
2.000000000000000E+50
 75
     0
  0
DIMASSOC
  5
9208
102
{ACAD_REACTORS
330
91FE
102
}
330
91FE
100
AcDbDimAssoc
330
91F1
 90
        3
 70
     0
 71
     0
  1
AcDbOsnapPointRef
 72
    13
331
8F0C
 73
     2
 91
        0
 40
0.0
 10
0.0
 20
0.0
 30
2.000000000000000E+50
 75
     0
  1
AcDbOsnapPointRef
 72
     1
331
8F01
 73
     2
 91
        0
 40
1.0
 10
0.0
 20
0.0
 30
2.000000000000000E+50
 75
     0
  0
DIMASSOC
  5
9224
102
{ACAD_REACTORS
330
9218
102
}
330
9218
100
AcDbDimAssoc
330
9209
 90
        3
 70
     0
 71
     0
  1
AcDbOsnapPointRef
 72
    13
331
9169
 73
     2
 91
        0
 40
0.0
 10
0.0
 20
0.0
 30
2.000000000000000E+50
 75
     0
  1
AcDbOsnapPointRef
 72
     1
331
9169
 73
     2
 91
        0
 40
1.0
 10
0.0
 20
0.0
 30
2.000000000000000E+50
 75
     0
  0
DIMASSOC
  5
923C
102
{ACAD_REACTORS
330
9232
102
}
330
9232
100
AcDbDimAssoc
330
9225
 90
        3
 70
     0
 71
     0
  1
AcDbOsnapPointRef
 72
     1
331
8F24
 73
     2
 91
        0
 40
1.0
 10
0.0
 20
0.0
 30
2.000000000000000E+50
 75
     0
  1
AcDbOsnapPointRef
 72
     8
331
8F23
 73
     2
 91
        0
 40
0.9999999999999968
 10
0.0
 20
0.0
 30
0.0
 75
     1
  1
AcDbOsnapPointRef
 72
     1
331
8F24
 73
     2
 91
        0
 40
1.0
 10
0.0
 20
0.0
 30
2.000000000000000E+50
 75
     0
  0
DIMASSOC
  5
92BF
102
{ACAD_REACTORS
330
92B5
102
}
330
92B5
100
AcDbDimAssoc
330
92A8
 90
        3
 70
     0
 71
     0
  1
AcDbOsnapPointRef
 72
    13
331
915A
 73
     2
 91
        0
 40
0.0
 10
0.0
 20
0.0
 30
2.000000000000000E+50
 75
     0
  1
AcDbOsnapPointRef
 72
    13
331
915B
 73
     2
 91
        0
 40
0.0
 10
0.0
 20
0.0
 30
2.000000000000000E+50
 75
     0
  0
DIMASSOC
  5
92DB
102
{ACAD_REACTORS
330
92CF
102
}
330
92CF
100
AcDbDimAssoc
330
92C0
 90
       15
 70
     0
 71
     0
  1
AcDbOsnapPointRef
 72
    13
331
8F07
 73
     2
 91
        0
 40
0.0
 10
0.0
 20
0.0
 30
2.000000000000000E+50
 75
     0
  1
AcDbOsnapPointRef
 72
     1
331
8F07
 73
     2
 91
        0
 40
1.0
 10
0.0
 20
0.0
 30
2.000000000000000E+50
 75
     0
  1
AcDbOsnapPointRef
 72
    13
331
8F4A
 73
     2
 91
        0
 40
0.0
 10
0.0
 20
0.0
 30
2.000000000000000E+50
 75
     0
  1
AcDbOsnapPointRef
 72
     1
331
8F4A
 73
     2
 91
        0
 40
1.0
 10
0.0
 20
0.0
 30
2.000000000000000E+50
 75
     0
  0
DIMASSOC
  5
9349
102
{ACAD_REACTORS
330
933F
102
}
330
933F
100
AcDbDimAssoc
330
9332
 90
        3
 70
     0
 71
     0
  1
AcDbOsnapPointRef
 72
     1
331
8F07
 73
     2
 91
        0
 40
1.0
 10
0.0
 20
0.0
 30
2.000000000000000E+50
 75
     0
  1
AcDbOsnapPointRef
 72
    13
331
8F25
 73
     2
 91
        0
 40
0.0
 10
0.0
 20
0.0
 30
2.000000000000000E+50
 75
     0
  0
DIMASSOC
  5
9473
102
{ACAD_REACTORS
330
9469
102
}
330
9469
100
AcDbDimAssoc
330
945C
 90
        3
 70
     0
 71
     0
  1
AcDbOsnapPointRef
 72
     2
331
8F33
 73
     2
 91
        0
 40
1.570796326794896
 10
0.0
 20
0.0
 30
0.0
 75
     0
  1
AcDbOsnapPointRef
 72
     5
331
945B
 73
     2
 91
        0
 40
4.712388980384689
 10
0.0
 20
0.0
 30
0.0
 75
     0
  0
DIMASSOC
  5
980D
102
{ACAD_REACTORS
330
9801
102
}
330
9801
100
AcDbDimAssoc
330
97F2
 90
       15
 70
     0
 71
     0
  1
AcDbOsnapPointRef
 72
    13
331
8F53
 73
     2
 91
        0
 40
0.0
 10
0.0
 20
0.0
 30
2.000000000000000E+50
 75
     0
  1
AcDbOsnapPointRef
 72
     1
331
8F53
 73
     2
 91
        0
 40
1.0
 10
0.0
 20
0.0
 30
2.000000000000000E+50
 75
     0
  1
AcDbOsnapPointRef
 72
    13
331
8F4B
 73
     2
 91
        0
 40
0.0
 10
0.0
 20
0.0
 30
2.000000000000000E+50
 75
     0
  1
AcDbOsnapPointRef
 72
     1
331
8F4B
 73
     2
 91
        0
 40
0.9999999999999998
 10
0.0
 20
0.0
 30
2.000000000000000E+50
 75
     0
  0
DIMASSOC
  5
9827
102
{ACAD_REACTORS
330
981C
102
}
330
981C
100
AcDbDimAssoc
330
980E
 90
        7
 70
     0
 71
     0
  1
AcDbOsnapPointRef
 72
     1
331
8F4B
 73
     2
 91
        0
 40
0.9999999999999998
 10
0.0
 20
0.0
 30
2.000000000000000E+50
 75
     0
  1
AcDbOsnapPointRef
 72
     1
331
8F52
 73
     2
 91
        0
 40
1.0
 10
0.0
 20
0.0
 30
2.000000000000000E+50
 75
     0
  1
AcDbOsnapPointRef
 72
    13
331
8F52
 73
     2
 91
        0
 40
0.0
 10
0.0
 20
0.0
 30
2.000000000000000E+50
 75
     0
  0
LAYOUT
  5
22
102
{ACAD_REACTORS
330
1A
102
}
330
1A
100
AcDbPlotSettings
  1

  2
DWG To PDF.pc3
  4
ISO_full_bleed_A4_(297.00_x_210.00_MM)
  6

 40
0.7937499880790711
 41
0.7937499880790711
 42
0.79376220703125
 43
0.7937469482421875
 44
297.0
 45
210.0
 46
7.706243902444811
 47
9.206251531839356
 48
-0.0000004512765059
 49
-0.0000003077995814
140
279.9999995487236
141
189.9999996922004
142
1.0
143
1.0
 70
 11940
 72
     1
 73
     0
 74
     4
  7
LIN.ctb
 75
     0
147
1.030363013063158
 76
     0
 77
     4
 78
   300
148
0.0000004512765059
149
0.0000003077995814
100
AcDbLayout
  1
Model
 70
     1
 71
     0
 10
0.0
 20
0.0
 11
12.0
 21
9.0
 12
0.0
 22
0.0
 32
0.0
 14
0.0
 24
0.0
 34
0.0
 15
0.0
 25
0.0
 35
0.0
146
0.0
 13
0.0
 23
0.0
 33
0.0
 16
1.0
 26
0.0
 36
0.0
 17
0.0
 27
1.0
 37
0.0
 76
     0
330
1F
331
8A6D
1001
ACAD_PSEXT
1000
DWG To PDF.pc3
1000
DWG To PDF
1000
檔案
1000

1070
     0
  0
LAYOUT
  5
D3
102
{ACAD_REACTORS
330
1A
102
}
330
1A
100
AcDbPlotSettings
  1

  2
C:\Documents and Settings\basas\Application Data\Autodesk\AutoCAD 2005\R16.1\enu\plotters\Default Windows System Printer.pc3
  4

  6

 40
0.0
 41
0.0
 42
0.0
 43
0.0
 44
0.0
 45
0.0
 46
0.0
 47
0.0
 48
0.0
 49
0.0
140
0.0
141
0.0
142
1.0
143
1.0
 70
   688
 72
     0
 73
     0
 74
     5
  7
LIN.ctb
 75
    16
147
1.0
 76
     0
 77
     2
 78
   300
148
0.0
149
0.0
100
AcDbLayout
  1
布局1
 70
     1
 71
     1
 10
0.0
 20
0.0
 11
12.0
 21
9.0
 12
0.0
 22
0.0
 32
0.0
 14
0.0
 24
0.0
 34
0.0
 15
0.0
 25
0.0
 35
0.0
146
0.0
 13
0.0
 23
0.0
 33
0.0
 16
1.0
 26
0.0
 36
0.0
 17
0.0
 27
1.0
 37
0.0
 76
     0
330
D2
1001
ACADSTRINGINFO
1000
MIFCodePage
1070
     5
  0
LAYOUT
  5
D7
102
{ACAD_REACTORS
330
1A
102
}
330
1A
100
AcDbPlotSettings
  1

  2
C:\Documents and Settings\basas\Application Data\Autodesk\AutoCAD 2005\R16.1\enu\plotters\Default Windows System Printer.pc3
  4

  6

 40
0.0
 41
0.0
 42
0.0
 43
0.0
 44
0.0
 45
0.0
 46
0.0
 47
0.0
 48
0.0
 49
0.0
140
0.0
141
0.0
142
1.0
143
1.0
 70
   688
 72
     0
 73
     0
 74
     5
  7
LIN.ctb
 75
    16
147
1.0
 76
     0
 77
     2
 78
   300
148
0.0
149
0.0
100
AcDbLayout
  1
布局2
 70
     1
 71
     2
 10
0.0
 20
0.0
 11
12.0
 21
9.0
 12
0.0
 22
0.0
 32
0.0
 14
0.0
 24
0.0
 34
0.0
 15
0.0
 25
0.0
 35
0.0
146
0.0
 13
0.0
 23
0.0
 33
0.0
 16
1.0
 26
0.0
 36
0.0
 17
0.0
 27
1.0
 37
0.0
 76
     0
330
D6
1001
ACADSTRINGINFO
1000
MIFCodePage
1070
     5
  0
MATERIAL
  5
8A77
102
{ACAD_XDICTIONARY
360
8A78
102
}
102
{ACAD_REACTORS
330
6A
102
}
330
6A
100
AcDbMaterial
  1
ByBlock
 72
     0
 43
0.0008202099737533
 43
0.0
 43
0.0
 43
0.0
 43
0.0
 43
0.0008202099737533
 43
0.0
 43
0.0
 43
0.0
 43
0.0
 43
1.0
 43
0.0
 43
0.0
 43
0.0
 43
0.0
 43
1.0
 77
     0
 47
0.0008202099737533
 47
0.0
 47
0.0
 47
0.0
 47
0.0
 47
0.0008202099737533
 47
0.0
 47
0.0
 47
0.0
 47
0.0
 47
1.0
 47
0.0
 47
0.0
 47
0.0
 47
0.0
 47
1.0
171
     0
 49
0.0008202099737533
 49
0.0
 49
0.0
 49
0.0
 49
0.0
 49
0.0008202099737533
 49
0.0
 49
0.0
 49
0.0
 49
0.0
 49
1.0
 49
0.0
 49
0.0
 49
0.0
 49
0.0
 49
1.0
175
     0
142
0.0008202099737533
142
0.0
142
0.0
142
0.0
142
0.0
142
0.0008202099737533
142
0.0
142
0.0
142
0.0
142
0.0
142
1.0
142
0.0
142
0.0
142
0.0
142
0.0
142
1.0
179
     0
144
0.0008202099737533
144
0.0
144
0.0
144
0.0
144
0.0
144
0.0008202099737533
144
0.0
144
0.0
144
0.0
144
0.0
144
1.0
144
0.0
144
0.0
144
0.0
144
0.0
144
1.0
147
0.0008202099737533
147
0.0
147
0.0
147
0.0
147
0.0
147
0.0008202099737533
147
0.0
147
0.0
147
0.0
147
0.0
147
1.0
147
0.0
147
0.0
147
0.0
147
0.0
147
1.0
  0
MATERIAL
  5
8A6F
102
{ACAD_XDICTIONARY
360
8A70
102
}
102
{ACAD_REACTORS
330
6A
102
}
330
6A
100
AcDbMaterial
  1
ByLayer
 72
     0
 43
0.0008202099737533
 43
0.0
 43
0.0
 43
0.0
 43
0.0
 43
0.0008202099737533
 43
0.0
 43
0.0
 43
0.0
 43
0.0
 43
1.0
 43
0.0
 43
0.0
 43
0.0
 43
0.0
 43
1.0
 77
     0
 47
0.0008202099737533
 47
0.0
 47
0.0
 47
0.0
 47
0.0
 47
0.0008202099737533
 47
0.0
 47
0.0
 47
0.0
 47
0.0
 47
1.0
 47
0.0
 47
0.0
 47
0.0
 47
0.0
 47
1.0
171
     0
 49
0.0008202099737533
 49
0.0
 49
0.0
 49
0.0
 49
0.0
 49
0.0008202099737533
 49
0.0
 49
0.0
 49
0.0
 49
0.0
 49
1.0
 49
0.0
 49
0.0
 49
0.0
 49
0.0
 49
1.0
175
     0
142
0.0008202099737533
142
0.0
142
0.0
142
0.0
142
0.0
142
0.0008202099737533
142
0.0
142
0.0
142
0.0
142
0.0
142
1.0
142
0.0
142
0.0
142
0.0
142
0.0
142
1.0
179
     0
144
0.0008202099737533
144
0.0
144
0.0
144
0.0
144
0.0
144
0.0008202099737533
144
0.0
144
0.0
144
0.0
144
0.0
144
1.0
144
0.0
144
0.0
144
0.0
144
0.0
144
1.0
147
0.0008202099737533
147
0.0
147
0.0
147
0.0
147
0.0
147
0.0008202099737533
147
0.0
147
0.0
147
0.0
147
0.0
147
1.0
147
0.0
147
0.0
147
0.0
147
0.0
147
1.0
  0
MATERIAL
  5
8A7F
102
{ACAD_XDICTIONARY
360
8A80
102
}
102
{ACAD_REACTORS
330
6A
102
}
330
6A
100
AcDbMaterial
  1
Global
 72
     0
 43
0.0008202099737533
 43
0.0
 43
0.0
 43
0.0
 43
0.0
 43
0.0008202099737533
 43
0.0
 43
0.0
 43
0.0
 43
0.0
 43
1.0
 43
0.0
 43
0.0
 43
0.0
 43
0.0
 43
1.0
 77
     0
 47
0.0008202099737533
 47
0.0
 47
0.0
 47
0.0
 47
0.0
 47
0.0008202099737533
 47
0.0
 47
0.0
 47
0.0
 47
0.0
 47
1.0
 47
0.0
 47
0.0
 47
0.0
 47
0.0
 47
1.0
171
     0
 49
0.0008202099737533
 49
0.0
 49
0.0
 49
0.0
 49
0.0
 49
0.0008202099737533
 49
0.0
 49
0.0
 49
0.0
 49
0.0
 49
1.0
 49
0.0
 49
0.0
 49
0.0
 49
0.0
 49
1.0
175
     0
142
0.0008202099737533
142
0.0
142
0.0
142
0.0
142
0.0
142
0.0008202099737533
142
0.0
142
0.0
142
0.0
142
0.0
142
1.0
142
0.0
142
0.0
142
0.0
142
0.0
142
1.0
179
     0
144
0.0008202099737533
144
0.0
144
0.0
144
0.0
144
0.0
144
0.0008202099737533
144
0.0
144
0.0
144
0.0
144
0.0
144
1.0
144
0.0
144
0.0
144
0.0
144
0.0
144
1.0
147
0.0008202099737533
147
0.0
147
0.0
147
0.0
147
0.0
147
0.0008202099737533
147
0.0
147
0.0
147
0.0
147
0.0
147
1.0
147
0.0
147
0.0
147
0.0
147
0.0
147
1.0
  0
MLEADERSTYLE
  5
8AB3
102
{ACAD_REACTORS
330
8AB2
102
}
330
8AB2
100
AcDbMLeaderStyle
179
     2
170
     2
171
     1
172
     0
 90
        2
 40
0.0
 41
0.0
173
     1
 91
-1056964608
340
14
 92
       -2
290
     1
 42
2.0
291
     1
 43
0.36
  3
Standard
 44
4.0
300

342
11
174
     1
178
     6
175
     1
176
     0
 93
-1056964608
 45
4.0
292
     0
297
     0
 46
4.0
 94
-1056964608
 47
1.0
 49
1.0
140
1.0
293
     1
141
0.0
294
     1
177
     0
142
1.0
295
     0
296
     0
143
0.125
271
     0
272
     9
273
     9
  0
MLINESTYLE
  5
18
102
{ACAD_REACTORS
330
17
102
}
330
17
100
AcDbMlineStyle
  2
STANDARD
 70
     0
  3

 62
   256
 51
90.0
 52
90.0
 71
     2
 49
0.5
 62
   256
  6
BYLAYER
 49
-0.5
 62
   256
  6
BYLAYER
  0
ACDBPLACEHOLDER
  5
F
102
{ACAD_REACTORS
330
E
102
}
330
E
  0
SCALE
  5
8AA1
102
{ACAD_REACTORS
330
8AA0
102
}
330
8AA0
100
AcDbScale
 70
     0
300
1:1
140
1.0
141
1.0
290
     1
  0
SCALE
  5
8AA2
102
{ACAD_REACTORS
330
8AA0
102
}
330
8AA0
100
AcDbScale
 70
     0
300
1:2
140
1.0
141
2.0
290
     0
  0
SCALE
  5
8AA3
102
{ACAD_REACTORS
330
8AA0
102
}
330
8AA0
100
AcDbScale
 70
     0
300
1:4
140
1.0
141
4.0
290
     0
  0
SCALE
  5
8AA4
102
{ACAD_REACTORS
330
8AA0
102
}
330
8AA0
100
AcDbScale
 70
     0
300
1:5
140
1.0
141
5.0
290
     0
  0
SCALE
  5
8AA5
102
{ACAD_REACTORS
330
8AA0
102
}
330
8AA0
100
AcDbScale
 70
     0
300
1:8
140
1.0
141
8.0
290
     0
  0
SCALE
  5
8AA6
102
{ACAD_REACTORS
330
8AA0
102
}
330
8AA0
100
AcDbScale
 70
     0
300
1:10
140
1.0
141
10.0
290
     0
  0
SCALE
  5
8AA7
102
{ACAD_REACTORS
330
8AA0
102
}
330
8AA0
100
AcDbScale
 70
     0
300
1:16
140
1.0
141
16.0
290
     0
  0
SCALE
  5
8AA8
102
{ACAD_REACTORS
330
8AA0
102
}
330
8AA0
100
AcDbScale
 70
     0
300
1:20
140
1.0
141
20.0
290
     0
  0
SCALE
  5
8AA9
102
{ACAD_REACTORS
330
8AA0
102
}
330
8AA0
100
AcDbScale
 70
     0
300
1:30
140
1.0
141
30.0
290
     0
  0
SCALE
  5
8AAA
102
{ACAD_REACTORS
330
8AA0
102
}
330
8AA0
100
AcDbScale
 70
     0
300
1:40
140
1.0
141
40.0
290
     0
  0
SCALE
  5
8AAB
102
{ACAD_REACTORS
330
8AA0
102
}
330
8AA0
100
AcDbScale
 70
     0
300
1:50
140
1.0
141
50.0
290
     0
  0
SCALE
  5
8AAC
102
{ACAD_REACTORS
330
8AA0
102
}
330
8AA0
100
AcDbScale
 70
     0
300
1:100
140
1.0
141
100.0
290
     0
  0
SCALE
  5
8AAD
102
{ACAD_REACTORS
330
8AA0
102
}
330
8AA0
100
AcDbScale
 70
     0
300
2:1
140
2.0
141
1.0
290
     0
  0
SCALE
  5
8AAE
102
{ACAD_REACTORS
330
8AA0
102
}
330
8AA0
100
AcDbScale
 70
     0
300
4:1
140
4.0
141
1.0
290
     0
  0
SCALE
  5
8AAF
102
{ACAD_REACTORS
330
8AA0
102
}
330
8AA0
100
AcDbScale
 70
     0
300
8:1
140
8.0
141
1.0
290
     0
  0
SCALE
  5
8AB0
102
{ACAD_REACTORS
330
8AA0
102
}
330
8AA0
100
AcDbScale
 70
     0
300
10:1
140
10.0
141
1.0
290
     0
  0
SCALE
  5
8AB1
102
{ACAD_REACTORS
330
8AA0
102
}
330
8AA0
100
AcDbScale
 70
     0
300
100:1
140
100.0
141
1.0
290
     0
  0
TABLESTYLE
  5
7F
102
{ACAD_XDICTIONARY
360
8B71
102
}
102
{ACAD_REACTORS
330
7E
102
}
330
7E
100
AcDbTableStyle
280
     0
  3
Standard
 70
     0
 71
     0
 40
1.5
 41
1.5
280
     0
281
     0
  7
Standard
140
4.5
170
     2
 62
     0
 63
     7
283
     0
 90
        4
 91
        0
  1

274
    -2
284
     1
 64
     0
275
    -2
285
     1
 65
     0
276
    -2
286
     1
 66
     0
277
    -2
287
     1
 67
     0
278
    -2
288
     1
 68
     0
279
    -2
289
     1
 69
     0
  7
Standard
140
6.0
170
     5
 62
     0
 63
     7
283
     0
 90
        4
 91
        0
  1

274
    -2
284
     1
 64
     0
275
    -2
285
     1
 65
     0
276
    -2
286
     1
 66
     0
277
    -2
287
     1
 67
     0
278
    -2
288
     1
 68
     0
279
    -2
289
     1
 69
     0
  7
Standard
140
4.5
170
     5
 62
     0
 63
     7
283
     0
 90
        4
 91
        0
  1

274
    -2
284
     1
 64
     0
275
    -2
285
     1
 65
     0
276
    -2
286
     1
 66
     0
277
    -2
287
     1
 67
     0
278
    -2
288
     1
 68
     0
279
    -2
289
     1
 69
     0
  0
VISUALSTYLE
  5
8A8D
102
{ACAD_REACTORS
330
8A87
102
}
330
8A87
100
AcDbVisualStyle
  2
2dWireframe
 70
     4
177
     2
291
     0
 71
     0
176
     1
 72
     2
176
     1
 73
     0
176
     1
 90
        0
176
     1
 40
0.6
176
     1
 41
30.0
176
     1
 63
     7
176
     1
 74
     1
176
     1
 91
        4
176
     1
 64
     7
176
     1
 65
   257
176
     1
 75
     1
176
     1
175
     1
176
     1
 42
1.0
176
     1
 92
        0
176
     1
 66
   257
176
     1
 43
1.0
176
     1
 76
     1
176
     1
 77
     6
176
     1
 78
     2
176
     1
 67
     7
176
     1
 79
     5
176
     1
170
     0
176
     1
171
     0
176
     1
290
     0
176
     1
 93
        1
176
     1
 44
0.0
176
     1
173
     0
176
     1
  0
VISUALSTYLE
  5
8A8C
102
{ACAD_REACTORS
330
8A87
102
}
330
8A87
100
AcDbVisualStyle
  2
Basic
 70
     7
177
     2
291
     1
 71
     1
176
     1
 72
     0
176
     1
 73
     1
176
     1
 90
        0
176
     1
 40
0.6
176
     1
 41
30.0
176
     1
 63
     7
176
     1
 74
     0
176
     1
 91
        4
176
     1
 64
     7
176
     1
 65
   257
176
     1
 75
     1
176
     1
175
     1
176
     1
 42
1.0
176
     1
 92
        8
176
     1
 66
     7
176
     1
 43
1.0
176
     1
 76
     1
176
     1
 77
     6
176
     1
 78
     2
176
     1
 67
     7
176
     1
 79
     5
176
     1
170
     0
176
     1
171
     0
176
     1
290
     0
176
     1
 93
        1
176
     1
 44
0.0
176
     1
173
     0
176
     1
  0
VISUALSTYLE
  5
8A93
102
{ACAD_REACTORS
330
8A87
102
}
330
8A87
100
AcDbVisualStyle
  2
Brighten
 70
    12
177
     2
291
     1
 71
     2
176
     1
 72
     2
176
     1
 73
     0
176
     1
 90
        0
176
     1
 40
0.6
176
     1
 41
30.0
176
     1
 63
     7
176
     1
 74
     1
176
     1
 91
        4
176
     1
 64
     7
176
     1
 65
   257
176
     1
 75
     1
176
     1
175
     1
176
     1
 42
1.0
176
     1
 92
        8
176
     1
 66
     7
176
     1
 43
1.0
176
     1
 76
     1
176
     1
 77
     6
176
     1
 78
     2
176
     1
 67
     7
176
     1
 79
     5
176
     1
170
     0
176
     1
171
     0
176
     1
290
     0
176
     1
 93
        1
176
     1
 44
50.0
176
     1
173
     0
176
     1
  0
VISUALSTYLE
  5
8A97
102
{ACAD_REACTORS
330
8A87
102
}
330
8A87
100
AcDbVisualStyle
  2
ColorChange
 70
    16
177
     2
291
     1
 71
     2
176
     1
 72
     2
176
     1
 73
     3
176
     1
 90
        0
176
     1
 40
0.6
176
     1
 41
30.0
176
     1
 63
     8
176
     1
 74
     1
176
     1
 91
        4
176
     1
 64
     7
176
     1
 65
   257
176
     1
 75
     1
176
     1
175
     1
176
     1
 42
1.0
176
     1
 92
        8
176
     1
 66
     8
176
     1
 43
1.0
176
     1
 76
     1
176
     1
 77
     6
176
     1
 78
     2
176
     1
 67
     7
176
     1
 79
     5
176
     1
170
     0
176
     1
171
     0
176
     1
290
     0
176
     1
 93
        1
176
     1
 44
0.0
176
     1
173
     0
176
     1
  0
VISUALSTYLE
  5
8A90
102
{ACAD_REACTORS
330
8A87
102
}
330
8A87
100
AcDbVisualStyle
  2
Conceptual
 70
     9
177
     2
291
     0
 71
     3
176
     1
 72
     2
176
     1
 73
     0
176
     1
 90
        0
176
     1
 40
0.6
176
     1
 41
30.0
176
     1
 63
     7
176
     1
 74
     2
176
     1
 91
        2
176
     1
 64
     7
176
     1
 65
   257
176
     1
 75
     1
176
     1
175
     1
176
     1
 42
179.0
176
     1
 92
        8
176
     1
 66
     7
176
     1
 43
1.0
176
     1
 76
     1
176
     1
 77
     6
176
     1
 78
     2
176
     1
 67
     7
176
     1
 79
     3
176
     1
170
     0
176
     1
171
     0
176
     1
290
     0
176
     1
 93
        1
176
     1
 44
0.0
176
     1
173
     0
176
     1
  0
VISUALSTYLE
  5
8A92
102
{ACAD_REACTORS
330
8A87
102
}
330
8A87
100
AcDbVisualStyle
  2
Dim
 70
    11
177
     2
291
     1
 71
     2
176
     1
 72
     2
176
     1
 73
     0
176
     1
 90
        0
176
     1
 40
0.6
176
     1
 41
30.0
176
     1
 63
     7
176
     1
 74
     1
176
     1
 91
        4
176
     1
 64
     7
176
     1
 65
   257
176
     1
 75
     1
176
     1
175
     1
176
     1
 42
1.0
176
     1
 92
        8
176
     1
 66
     7
176
     1
 43
1.0
176
     1
 76
     1
176
     1
 77
     6
176
     1
 78
     2
176
     1
 67
     7
176
     1
 79
     5
176
     1
170
     0
176
     1
171
     0
176
     1
290
     0
176
     1
 93
        1
176
     1
 44
-50.0
176
     1
173
     0
176
     1
  0
VISUALSTYLE
  5
8A9F
102
{ACAD_REACTORS
330
8A87
102
}
330
8A87
100
AcDbVisualStyle
  2
EdgeColorOff
 70
    22
177
     2
291
     1
 71
     2
176
     0
 72
     2
176
     0
 73
     0
176
     0
 90
        0
176
     0
 40
0.6
176
     0
 41
30.0
176
     0
 63
     7
176
     0
 74
     1
176
     0
 91
        4
176
     0
 64
     7
176
     0
 65
   257
176
     0
 75
     1
176
     0
175
     1
176
     0
 42
1.0
176
     0
 92
        8
176
     2
 66
     7
176
     0
 43
1.0
176
     0
 76
     1
176
     0
 77
     6
176
     0
 78
     2
176
     0
 67
     7
176
     0
 79
     5
176
     0
170
     0
176
     0
171
     0
176
     0
290
     0
176
     0
 93
        1
176
     0
 44
0.0
176
     0
173
     0
176
     0
  0
VISUALSTYLE
  5
8A96
102
{ACAD_REACTORS
330
8A87
102
}
330
8A87
100
AcDbVisualStyle
  2
Facepattern
 70
    15
177
     2
291
     1
 71
     2
176
     1
 72
     2
176
     1
 73
     0
176
     1
 90
        0
176
     1
 40
0.6
176
     1
 41
30.0
176
     1
 63
     7
176
     1
 74
     1
176
     1
 91
        4
176
     1
 64
     7
176
     1
 65
   257
176
     1
 75
     1
176
     1
175
     1
176
     1
 42
1.0
176
     1
 92
        8
176
     1
 66
     7
176
     1
 43
1.0
176
     1
 76
     1
176
     1
 77
     6
176
     1
 78
     2
176
     1
 67
     7
176
     1
 79
     5
176
     1
170
     0
176
     1
171
     0
176
     1
290
     0
176
     1
 93
        1
176
     1
 44
0.0
176
     1
173
     0
176
     1
  0
VISUALSTYLE
  5
8A88
102
{ACAD_REACTORS
330
8A87
102
}
330
8A87
100
AcDbVisualStyle
  2
Flat
 70
     0
177
     2
291
     1
 71
     2
176
     1
 72
     1
176
     1
 73
     1
176
     1
 90
        2
176
     1
 40
0.6
176
     1
 41
30.0
176
     1
 63
     7
176
     1
 74
     0
176
     1
 91
        0
176
     1
 64
     7
176
     1
 65
   257
176
     1
 75
     1
176
     1
175
     1
176
     1
 42
1.0
176
     1
 92
        8
176
     1
 66
     7
176
     1
 43
1.0
176
     1
 76
     1
176
     1
 77
     6
176
     1
 78
     2
176
     1
 67
     7
176
     1
 79
     5
176
     1
170
     0
176
     1
171
     0
176
     1
290
     0
176
     1
 93
       13
176
     1
 44
0.0
176
     1
173
     0
176
     1
  0
VISUALSTYLE
  5
8A89
102
{ACAD_REACTORS
330
8A87
102
}
330
8A87
100
AcDbVisualStyle
  2
FlatWithEdges
 70
     1
177
     2
291
     1
 71
     2
176
     1
 72
     1
176
     1
 73
     1
176
     1
 90
        2
176
     1
 40
0.6
176
     1
 41
30.0
176
     1
 63
     7
176
     1
 74
     1
176
     1
 91
        0
176
     1
 64
     7
176
     1
 65
   257
176
     1
 75
     1
176
     1
175
     1
176
     1
 42
1.0
176
     1
 92
        0
176
     1
 66
   257
176
     1
 43
1.0
176
     1
 76
     1
176
     1
 77
     6
176
     1
 78
     2
176
     1
 67
     7
176
     1
 79
     5
176
     1
170
     0
176
     1
171
     0
176
     1
290
     0
176
     1
 93
       13
176
     1
 44
0.0
176
     1
173
     0
176
     1
  0
VISUALSTYLE
  5
8A8A
102
{ACAD_REACTORS
330
8A87
102
}
330
8A87
100
AcDbVisualStyle
  2
Gouraud
 70
     2
177
     2
291
     1
 71
     2
176
     1
 72
     2
176
     1
 73
     1
176
     1
 90
        2
176
     1
 40
0.6
176
     1
 41
30.0
176
     1
 63
     7
176
     1
 74
     0
176
     1
 91
        0
176
     1
 64
     7
176
     1
 65
   257
176
     1
 75
     1
176
     1
175
     1
176
     1
 42
1.0
176
     1
 92
        0
176
     1
 66
     7
176
     1
 43
1.0
176
     1
 76
     1
176
     1
 77
     6
176
     1
 78
     2
176
     1
 67
     7
176
     1
 79
     5
176
     1
170
     0
176
     1
171
     0
176
     1
290
     0
176
     1
 93
       13
176
     1
 44
0.0
176
     1
173
     0
176
     1
  0
VISUALSTYLE
  5
8A8B
102
{ACAD_REACTORS
330
8A87
102
}
330
8A87
100
AcDbVisualStyle
  2
GouraudWithEdges
 70
     3
177
     2
291
     1
 71
     2
176
     1
 72
     2
176
     1
 73
     1
176
     1
 90
        2
176
     1
 40
0.6
176
     1
 41
30.0
176
     1
 63
     7
176
     1
 74
     1
176
     1
 91
        0
176
     1
 64
     7
176
     1
 65
   257
176
     1
 75
     1
176
     1
175
     1
176
     1
 42
1.0
176
     1
 92
        0
176
     1
 66
   257
176
     1
 43
1.0
176
     1
 76
     1
176
     1
 77
     6
176
     1
 78
     2
176
     1
 67
     7
176
     1
 79
     5
176
     1
170
     0
176
     1
171
     0
176
     1
290
     0
176
     1
 93
       13
176
     1
 44
0.0
176
     1
173
     0
176
     1
  0
VISUALSTYLE
  5
8A8F
102
{ACAD_REACTORS
330
8A87
102
}
330
8A87
100
AcDbVisualStyle
  2
Hidden
 70
     6
177
     2
291
     0
 71
     1
176
     1
 72
     2
176
     1
 73
     2
176
     1
 90
        0
176
     1
 40
0.6
176
     1
 41
30.0
176
     1
 63
     7
176
     1
 74
     2
176
     1
 91
        2
176
     1
 64
     7
176
     1
 65
   257
176
     1
 75
     2
176
     1
175
     1
176
     1
 42
40.0
176
     1
 92
        0
176
     1
 66
   257
176
     1
 43
1.0
176
     1
 76
     1
176
     1
 77
     6
176
     1
 78
     2
176
     1
 67
     7
176
     1
 79
     3
176
     1
170
     0
176
     1
171
     0
176
     1
290
     0
176
     1
 93
        1
176
     1
 44
0.0
176
     1
173
     0
176
     1
  0
VISUALSTYLE
  5
8A9D
102
{ACAD_REACTORS
330
8A87
102
}
330
8A87
100
AcDbVisualStyle
  2
JitterOff
 70
    20
177
     2
291
     1
 71
     2
176
     0
 72
     2
176
     0
 73
     0
176
     0
 90
        0
176
     0
 40
0.6
176
     0
 41
30.0
176
     0
 63
     7
176
     0
 74
     1
176
     0
 91
        4
176
     0
 64
     7
176
     0
 65
   257
176
     0
 75
     1
176
     0
175
     1
176
     0
 42
1.0
176
     0
 92
       10
176
     2
 66
     7
176
     0
 43
1.0
176
     0
 76
     1
176
     0
 77
     6
176
     0
 78
     2
176
     0
 67
     7
176
     0
 79
     5
176
     0
170
     0
176
     0
171
     0
176
     0
290
     0
176
     0
 93
        1
176
     0
 44
0.0
176
     0
173
     0
176
     0
  0
VISUALSTYLE
  5
8A95
102
{ACAD_REACTORS
330
8A87
102
}
330
8A87
100
AcDbVisualStyle
  2
Linepattern
 70
    14
177
     2
291
     1
 71
     2
176
     1
 72
     2
176
     1
 73
     0
176
     1
 90
        0
176
     1
 40
0.6
176
     1
 41
30.0
176
     1
 63
     7
176
     1
 74
     1
176
     1
 91
        4
176
     1
 64
     7
176
     1
 65
   257
176
     1
 75
     7
176
     1
175
     7
176
     1
 42
1.0
176
     1
 92
        8
176
     1
 66
     7
176
     1
 43
1.0
176
     1
 76
     1
176
     1
 77
     6
176
     1
 78
     2
176
     1
 67
     7
176
     1
 79
     5
176
     1
170
     0
176
     1
171
     0
176
     1
290
     0
176
     1
 93
        1
176
     1
 44
0.0
176
     1
173
     0
176
     1
  0
VISUALSTYLE
  5
8A9E
102
{ACAD_REACTORS
330
8A87
102
}
330
8A87
100
AcDbVisualStyle
  2
OverhangOff
 70
    21
177
     2
291
     1
 71
     2
176
     0
 72
     2
176
     0
 73
     0
176
     0
 90
        0
176
     0
 40
0.6
176
     0
 41
30.0
176
     0
 63
     7
176
     0
 74
     1
176
     0
 91
        4
176
     0
 64
     7
176
     0
 65
   257
176
     0
 75
     1
176
     0
175
     1
176
     0
 42
1.0
176
     0
 92
        9
176
     2
 66
     7
176
     0
 43
1.0
176
     0
 76
     1
176
     0
 77
     6
176
     0
 78
     2
176
     0
 67
     7
176
     0
 79
     5
176
     0
170
     0
176
     0
171
     0
176
     0
290
     0
176
     0
 93
        1
176
     0
 44
0.0
176
     0
173
     0
176
     0
  0
VISUALSTYLE
  5
8A91
102
{ACAD_REACTORS
330
8A87
102
}
330
8A87
100
AcDbVisualStyle
  2
Realistic
 70
     8
177
     2
291
     0
 71
     2
176
     1
 72
     2
176
     1
 73
     0
176
     1
 90
        2
176
     1
 40
0.6
176
     1
 41
30.0
176
     1
 63
     7
176
     1
 74
     0
176
     1
 91
        0
176
     1
 64
     7
176
     1
 65
   257
176
     1
 75
     1
176
     1
175
     1
176
     1
 42
1.0
176
     1
 92
        8
176
     1
 66
   257
176
     1
 43
1.0
176
     1
 76
     1
176
     1
 77
     6
176
     1
 78
     2
176
     1
 67
     7
176
     1
 79
     3
176
     1
170
     0
176
     1
171
     0
176
     1
290
     0
176
     1
 93
       13
176
     1
 44
0.0
176
     1
173
     0
176
     1
  0
VISUALSTYLE
  5
8A9C
102
{ACAD_REACTORS
330
8A87
102
}
330
8A87
100
AcDbVisualStyle
  2
Shaded
 70
    27
177
     2
291
     0
 71
     2
176
     1
 72
     2
176
     1
 73
     1
176
     1
 90
        2
176
     1
 40
0.6
176
     1
 41
30.0
176
     1
 63
     7
176
     1
 74
     0
176
     1
 91
        4
176
     1
 64
     7
176
     1
 65
   257
176
     1
 75
     1
176
     1
175
     1
176
     1
 42
1.0
176
     1
 92
        8
176
     1
 66
   257
176
     1
 43
1.0
176
     1
 76
     1
176
     1
 77
     6
176
     1
 78
     2
176
     1
 67
     8
176
     1
 79
     3
176
     1
170
     0
176
     1
171
     0
176
     1
290
     0
176
     1
 93
        5
176
     1
 44
0.0
176
     1
173
     0
176
     1
  0
VISUALSTYLE
  5
8A9B
102
{ACAD_REACTORS
330
8A87
102
}
330
8A87
100
AcDbVisualStyle
  2
Shaded with edges
 70
    26
177
     2
291
     0
 71
     2
176
     1
 72
     2
176
     1
 73
     1
176
     1
 90
        2
176
     1
 40
0.6
176
     1
 41
30.0
176
     1
 63
     7
176
     1
 74
     1
176
     1
 91
       10
176
     1
 64
     7
176
     1
 65
   257
176
     1
 75
     2
176
     1
175
     1
176
     1
 42
1.0
176
     1
 92
        8
176
     1
 66
   257
176
     1
 43
1.0
176
     1
 76
     1
176
     1
 77
     6
176
     1
 78
     2
176
     1
 67
     7
176
     1
 79
     3
176
     1
170
     0
176
     1
171
     0
176
     1
290
     0
176
     1
 93
        5
176
     1
 44
0.0
176
     1
173
     0
176
     1
  0
VISUALSTYLE
  5
8A98
102
{ACAD_REACTORS
330
8A87
102
}
330
8A87
100
AcDbVisualStyle
  2
Shades of Gray
 70
    23
177
     2
291
     0
 71
     2
176
     1
 72
     2
176
     1
 73
     3
176
     1
 90
        0
176
     1
 40
0.6
176
     1
 41
30.0
176
     1
 63
     7
176
     1
 74
     2
176
     1
 91
        2
176
     1
 64
     7
176
     1
 65
     7
176
     1
 75
     1
176
     1
175
     1
176
     1
 42
40.0
176
     1
 92
        8
176
     1
 66
     7
176
     1
 43
1.0
176
     1
 76
     1
176
     1
 77
     6
176
     1
 78
     2
176
     1
 67
     7
176
     1
 79
     3
176
     1
170
     0
176
     1
171
     0
176
     1
290
     0
176
     1
 93
        1
176
     1
 44
0.0
176
     1
173
     0
176
     1
  0
VISUALSTYLE
  5
8A99
102
{ACAD_REACTORS
330
8A87
102
}
330
8A87
100
AcDbVisualStyle
  2
Sketchy
 70
    24
177
     2
291
     0
 71
     1
176
     1
 72
     2
176
     1
 73
     2
176
     1
 90
        0
176
     1
 40
0.6
176
     1
 41
30.0
176
     1
 63
     7
176
     1
 74
     2
176
     1
 91
        2
176
     1
 64
     7
176
     1
 65
     7
176
     1
 75
     1
176
     1
175
     1
176
     1
 42
40.0
176
     1
 92
       11
176
     1
 66
     7
176
     1
 43
1.0
176
     1
 76
     1
176
     1
 77
     6
176
     1
 78
     2
176
     1
 67
     7
176
     1
 79
     6
176
     1
170
     0
176
     1
171
     0
176
     1
290
     0
176
     1
 93
        1
176
     1
 44
0.0
176
     1
173
     0
176
     1
  0
VISUALSTYLE
  5
8A94
102
{ACAD_REACTORS
330
8A87
102
}
330
8A87
100
AcDbVisualStyle
  2
Thicken
 70
    13
177
     2
291
     1
 71
     2
176
     1
 72
     2
176
     1
 73
     0
176
     1
 90
        0
176
     1
 40
0.6
176
     1
 41
30.0
176
     1
 63
     7
176
     1
 74
     1
176
     1
 91
        4
176
     1
 64
     7
176
     1
 65
   257
176
     1
 75
     1
176
     1
175
     1
176
     1
 42
1.0
176
     1
 92
       12
176
     1
 66
     7
176
     1
 43
1.0
176
     1
 76
     1
176
     1
 77
     6
176
     1
 78
     2
176
     1
 67
     7
176
     1
 79
     5
176
     1
170
     0
176
     1
171
     0
176
     1
290
     0
176
     1
 93
        1
176
     1
 44
0.0
176
     1
173
     0
176
     1
  0
VISUALSTYLE
  5
8A8E
102
{ACAD_REACTORS
330
8A87
102
}
330
8A87
100
AcDbVisualStyle
  2
Wireframe
 70
     5
177
     2
291
     0
 71
     0
176
     1
 72
     2
176
     1
 73
     0
176
     1
 90
        0
176
     1
 40
0.6
176
     1
 41
30.0
176
     1
 63
     7
176
     1
 74
     1
176
     1
 91
        4
176
     1
 64
     7
176
     1
 65
   257
176
     1
 75
     1
176
     1
175
     1
176
     1
 42
1.0
176
     1
 92
        0
176
     1
 66
   257
176
     1
 43
1.0
176
     1
 76
     1
176
     1
 77
     6
176
     1
 78
     2
176
     1
 67
     7
176
     1
 79
     3
176
     1
170
     0
176
     1
171
     0
176
     1
290
     0
176
     1
 93
        1
176
     1
 44
0.0
176
     1
173
     0
176
     1
  0
VISUALSTYLE
  5
8A9A
102
{ACAD_REACTORS
330
8A87
102
}
330
8A87
100
AcDbVisualStyle
  2
X-Ray
 70
    25
177
     2
291
     0
 71
     2
176
     1
 72
     2
176
     1
 73
     1
176
     1
 90
        1
176
     1
 40
0.5
176
     1
 41
30.0
176
     1
 63
     7
176
     1
 74
     1
176
     1
 91
        0
176
     1
 64
     7
176
     1
 65
   257
176
     1
 75
     1
176
     1
175
     1
176
     1
 42
1.0
176
     1
 92
        8
176
     1
 66
     7
176
     1
 43
1.0
176
     1
 76
     1
176
     1
 77
     6
176
     1
 78
     2
176
     1
 67
     7
176
     1
 79
     3
176
     1
170
     0
176
     1
171
     0
176
     1
290
     0
176
     1
 93
       13
176
     1
 44
0.0
176
     1
173
     0
176
     1
  0
DICTIONARYVAR
  5
8BC4
102
{ACAD_REACTORS
330
5E
102
}
330
5E
100
DictionaryVariables
280
     0
  1
1:1
  0
DICTIONARYVAR
  5
8BC3
102
{ACAD_REACTORS
330
5E
102
}
330
5E
100
DictionaryVariables
280
     0
  1
STANDARD
  0
DICTIONARYVAR
  5
84
102
{ACAD_REACTORS
330
5E
102
}
330
5E
100
DictionaryVariables
280
     0
  1
STANDARD
  0
DICTIONARYVAR
  5
5F
102
{ACAD_REACTORS
330
5E
102
}
330
5E
100
DictionaryVariables
280
     0
  1
2
  0
DICTIONARYVAR
  5
63
102
{ACAD_REACTORS
330
5E
102
}
330
5E
100
DictionaryVariables
280
     0
  1
1
  0
DICTIONARYVAR
  5
8BC6
102
{ACAD_REACTORS
330
5E
102
}
330
5E
100
DictionaryVariables
280
     0
  1
0
  0
DICTIONARYVAR
  5
9AEA
102
{ACAD_REACTORS
330
5E
102
}
330
5E
100
DictionaryVariables
280
     0
  1
1
  0
DICTIONARYVAR
  5
9AEB
102
{ACAD_REACTORS
330
5E
102
}
330
5E
100
DictionaryVariables
280
     0
  1
15
  0
DICTIONARYVAR
  5
9AE9
102
{ACAD_REACTORS
330
5E
102
}
330
5E
100
DictionaryVariables
280
     0
  1
0
  0
DICTIONARYVAR
  5
9AE8
102
{ACAD_REACTORS
330
5E
102
}
330
5E
100
DictionaryVariables
280
     0
  1
0
  0
DICTIONARYVAR
  5
8BC5
102
{ACAD_REACTORS
330
5E
102
}
330
5E
100
DictionaryVariables
280
     0
  1
127
  0
DICTIONARY
  5
8B18
102
{ACAD_REACTORS
330
8B0D
102
}
330
8B0D
100
AcDbDictionary
281
     1
  0
DICTIONARY
  5
8A78
330
8A77
100
AcDbDictionary
280
     1
281
     1
  3
BUMPTILE
360
8A7A
  3
DIFFUSETILE
360
8A79
  3
OPACITYTILE
360
8A7D
  3
REFLECTIONTILE
360
8A7C
  3
REFRACTIONTILE
360
8A7E
  3
SPECULARTILE
360
8A7B
  0
DICTIONARY
  5
8A70
330
8A6F
100
AcDbDictionary
280
     1
281
     1
  3
BUMPTILE
360
8A72
  3
DIFFUSETILE
360
8A71
  3
OPACITYTILE
360
8A75
  3
REFLECTIONTILE
360
8A74
  3
REFRACTIONTILE
360
8A76
  3
SPECULARTILE
360
8A73
  0
DICTIONARY
  5
8A80
330
8A7F
100
AcDbDictionary
280
     1
281
     1
  3
BUMPTILE
360
8A82
  3
DIFFUSETILE
360
8A81
  3
OPACITYTILE
360
8A85
  3
REFLECTIONTILE
360
8A84
  3
REFRACTIONTILE
360
8A86
  3
SPECULARTILE
360
8A83
  0
DICTIONARY
  5
8B71
330
7F
100
AcDbDictionary
280
     1
281
     1
  3
ACAD_ROUNDTRIP_2008_TABLESTYLE_CELLSTYLEMAP
360
9AEC
  0
XRECORD
  5
8A7A
102
{ACAD_REACTORS
330
8A78
102
}
330
8A78
100
AcDbXrecord
280
     1
270
     1
271
     1
  0
XRECORD
  5
8A79
102
{ACAD_REACTORS
330
8A78
102
}
330
8A78
100
AcDbXrecord
280
     1
270
     1
271
     1
  0
XRECORD
  5
8A7D
102
{ACAD_REACTORS
330
8A78
102
}
330
8A78
100
AcDbXrecord
280
     1
270
     1
271
     1
  0
XRECORD
  5
8A7C
102
{ACAD_REACTORS
330
8A78
102
}
330
8A78
100
AcDbXrecord
280
     1
270
     1
271
     1
  0
XRECORD
  5
8A7E
102
{ACAD_REACTORS
330
8A78
102
}
330
8A78
100
AcDbXrecord
280
     1
270
     1
271
     1
  0
XRECORD
  5
8A7B
102
{ACAD_REACTORS
330
8A78
102
}
330
8A78
100
AcDbXrecord
280
     1
270
     1
271
     1
  0
XRECORD
  5
8A72
102
{ACAD_REACTORS
330
8A70
102
}
330
8A70
100
AcDbXrecord
280
     1
270
     1
271
     1
  0
XRECORD
  5
8A71
102
{ACAD_REACTORS
330
8A70
102
}
330
8A70
100
AcDbXrecord
280
     1
270
     1
271
     1
  0
XRECORD
  5
8A75
102
{ACAD_REACTORS
330
8A70
102
}
330
8A70
100
AcDbXrecord
280
     1
270
     1
271
     1
  0
XRECORD
  5
8A74
102
{ACAD_REACTORS
330
8A70
102
}
330
8A70
100
AcDbXrecord
280
     1
270
     1
271
     1
  0
XRECORD
  5
8A76
102
{ACAD_REACTORS
330
8A70
102
}
330
8A70
100
AcDbXrecord
280
     1
270
     1
271
     1
  0
XRECORD
  5
8A73
102
{ACAD_REACTORS
330
8A70
102
}
330
8A70
100
AcDbXrecord
280
     1
270
     1
271
     1
  0
XRECORD
  5
8A82
102
{ACAD_REACTORS
330
8A80
102
}
330
8A80
100
AcDbXrecord
280
     1
270
     1
271
     1
  0
XRECORD
  5
8A81
102
{ACAD_REACTORS
330
8A80
102
}
330
8A80
100
AcDbXrecord
280
     1
270
     1
271
     1
  0
XRECORD
  5
8A85
102
{ACAD_REACTORS
330
8A80
102
}
330
8A80
100
AcDbXrecord
280
     1
270
     1
271
     1
  0
XRECORD
  5
8A84
102
{ACAD_REACTORS
330
8A80
102
}
330
8A80
100
AcDbXrecord
280
     1
270
     1
271
     1
  0
XRECORD
  5
8A86
102
{ACAD_REACTORS
330
8A80
102
}
330
8A80
100
AcDbXrecord
280
     1
270
     1
271
     1
  0
XRECORD
  5
8A83
102
{ACAD_REACTORS
330
8A80
102
}
330
8A80
100
AcDbXrecord
280
     1
270
     1
271
     1
  0
CELLSTYLEMAP
  5
9AEC
102
{ACAD_REACTORS
330
8B71
102
}
330
8B71
100
AcDbCellStyleMap
 90
        3
300
CELLSTYLE
  1
TABLEFORMAT_BEGIN
 90
        5
170
     1
 91
        0
 92
    32768
 62
   257
 93
        1
300
CONTENTFORMAT
  1
CONTENTFORMAT_BEGIN
 90
        0
 91
        0
 92
        4
 93
        0
300

 40
0.0
140
1.0
 94
        5
 62
     0
340
11
144
6.0
309
CONTENTFORMAT_END
171
     1
301
MARGIN
  1
CELLMARGIN_BEGIN
 40
1.5
 40
1.5
 40
1.5
 40
1.5
 40
0.18
 40
0.18
309
CELLMARGIN_END
 94
        6
 95
        1
302
GRIDFORMAT
  1
GRIDFORMAT_BEGIN
 90
        0
 91
        1
 62
     0
 92
       -2
340
0
 93
        0
 40
0.045
309
GRIDFORMAT_END
 95
        2
302
GRIDFORMAT
  1
GRIDFORMAT_BEGIN
 90
        0
 91
        1
 62
     0
 92
       -2
340
0
 93
        0
 40
0.045
309
GRIDFORMAT_END
 95
        4
302
GRIDFORMAT
  1
GRIDFORMAT_BEGIN
 90
        0
 91
        1
 62
     0
 92
       -2
340
0
 93
        0
 40
0.045
309
GRIDFORMAT_END
 95
        8
302
GRIDFORMAT
  1
GRIDFORMAT_BEGIN
 90
        0
 91
        1
 62
     0
 92
       -2
340
0
 93
        0
 40
0.045
309
GRIDFORMAT_END
 95
       16
302
GRIDFORMAT
  1
GRIDFORMAT_BEGIN
 90
        0
 91
        1
 62
     0
 92
       -2
340
0
 93
        0
 40
0.045
309
GRIDFORMAT_END
 95
       32
302
GRIDFORMAT
  1
GRIDFORMAT_BEGIN
 90
        0
 91
        1
 62
     0
 92
       -2
340
0
 93
        0
 40
0.045
309
GRIDFORMAT_END
309
TABLEFORMAT_END
  1
CELLSTYLE_BEGIN
 90
        1
 91
        1
300
_TITLE
309
CELLSTYLE_END
300
CELLSTYLE
  1
TABLEFORMAT_BEGIN
 90
        5
170
     1
 91
        0
 92
        0
 62
   257
 93
        1
300
CONTENTFORMAT
  1
CONTENTFORMAT_BEGIN
 90
        0
 91
        0
 92
        4
 93
        0
300

 40
0.0
140
1.0
 94
        5
 62
     0
340
11
144
4.5
309
CONTENTFORMAT_END
171
     1
301
MARGIN
  1
CELLMARGIN_BEGIN
 40
1.5
 40
1.5
 40
1.5
 40
1.5
 40
0.18
 40
0.18
309
CELLMARGIN_END
 94
        6
 95
        1
302
GRIDFORMAT
  1
GRIDFORMAT_BEGIN
 90
        0
 91
        1
 62
     0
 92
       -2
340
0
 93
        0
 40
0.045
309
GRIDFORMAT_END
 95
        2
302
GRIDFORMAT
  1
GRIDFORMAT_BEGIN
 90
        0
 91
        1
 62
     0
 92
       -2
340
0
 93
        0
 40
0.045
309
GRIDFORMAT_END
 95
        4
302
GRIDFORMAT
  1
GRIDFORMAT_BEGIN
 90
        0
 91
        1
 62
     0
 92
       -2
340
0
 93
        0
 40
0.045
309
GRIDFORMAT_END
 95
        8
302
GRIDFORMAT
  1
GRIDFORMAT_BEGIN
 90
        0
 91
        1
 62
     0
 92
       -2
340
0
 93
        0
 40
0.045
309
GRIDFORMAT_END
 95
       16
302
GRIDFORMAT
  1
GRIDFORMAT_BEGIN
 90
        0
 91
        1
 62
     0
 92
       -2
340
0
 93
        0
 40
0.045
309
GRIDFORMAT_END
 95
       32
302
GRIDFORMAT
  1
GRIDFORMAT_BEGIN
 90
        0
 91
        1
 62
     0
 92
       -2
340
0
 93
        0
 40
0.045
309
GRIDFORMAT_END
309
TABLEFORMAT_END
  1
CELLSTYLE_BEGIN
 90
        2
 91
        1
300
_HEADER
309
CELLSTYLE_END
300
CELLSTYLE
  1
TABLEFORMAT_BEGIN
 90
        5
170
     1
 91
        0
 92
        0
 62
   257
 93
        1
300
CONTENTFORMAT
  1
CONTENTFORMAT_BEGIN
 90
        0
 91
        0
 92
        4
 93
        0
300

 40
0.0
140
1.0
 94
        2
 62
     0
340
11
144
4.5
309
CONTENTFORMAT_END
171
     1
301
MARGIN
  1
CELLMARGIN_BEGIN
 40
1.5
 40
1.5
 40
1.5
 40
1.5
 40
0.18
 40
0.18
309
CELLMARGIN_END
 94
        6
 95
        1
302
GRIDFORMAT
  1
GRIDFORMAT_BEGIN
 90
        0
 91
        1
 62
     0
 92
       -2
340
0
 93
        0
 40
0.045
309
GRIDFORMAT_END
 95
        2
302
GRIDFORMAT
  1
GRIDFORMAT_BEGIN
 90
        0
 91
        1
 62
     0
 92
       -2
340
0
 93
        0
 40
0.045
309
GRIDFORMAT_END
 95
        4
302
GRIDFORMAT
  1
GRIDFORMAT_BEGIN
 90
        0
 91
        1
 62
     0
 92
       -2
340
0
 93
        0
 40
0.045
309
GRIDFORMAT_END
 95
        8
302
GRIDFORMAT
  1
GRIDFORMAT_BEGIN
 90
        0
 91
        1
 62
     0
 92
       -2
340
0
 93
        0
 40
0.045
309
GRIDFORMAT_END
 95
       16
302
GRIDFORMAT
  1
GRIDFORMAT_BEGIN
 90
        0
 91
        1
 62
     0
 92
       -2
340
0
 93
        0
 40
0.045
309
GRIDFORMAT_END
 95
       32
302
GRIDFORMAT
  1
GRIDFORMAT_BEGIN
 90
        0
 91
        1
 62
     0
 92
       -2
340
0
 93
        0
 40
0.045
309
GRIDFORMAT_END
309
TABLEFORMAT_END
  1
CELLSTYLE_BEGIN
 90
        3
 91
        2
300
_DATA
309
CELLSTYLE_END
  0
ENDSEC
  0
EOF
